Action

I Spy (2002) DVDRip MP3 ENG

  • Download 5x Faster
  • Download torrent
  • Direct Download
  • Rate this torrent +  |  -
I Spy (2002) DVDRip MP3 ENG

Anonymous and Free Direct Download


Torrent info

Name:I Spy (2002) DVDRip MP3 ENG

Total Size: 700.44 MB

Magnet: Magnet Link

Seeds: 65

Leechers: 12

Stream: Watch Online @ Movie4u

Last Updated: 0000-00-00 00:00:00 (Update Now)

Torrent added: 2009-08-22 02:28:36



VPN For Torrents

Torrent Files List


Tracked_by_Demonoid_com.txt (Size: 700.44 MB) (Files: 3)

 Tracked_by_Demonoid_com.txt

0.03 KB

 I Spy (2002) - DVDRip - MP3 - ENG.nfo

11.39 KB

 I Spy (2002) - DVDRip - MP3 - ENG.avi

700.43 MB
 

Announce URL: http://inferno.demonoid.com:3398/announce

Torrent description

I Spy (2002)

IMDb: http://www.imdb.com/title/tt0297181/
User Rating: 5.3/10 14,127 votes
Release Date: 24 January 2003 (UK)
Genre: Action | Adventure | Comedy | Thriller
Tagline: Attitude meets espionage

Plot: Based on the 1960's television series I Spy. A professional athlete (boxer - Eddie Murphy) has to help a U.S. government agent recover a missing jet.

Cast: (Cast overview, first billed only)

Eddie Murphy ... Kelly
Owen Wilson ... Alex
Famke Janssen ... Rachel
Malcolm McDowell ... Gundars
Gary Cole ... Carlos
Phill Lewis ... Jerry
Viv Leacock ... T.J.
Keith Dallas ... Lunchbox
Tate Taylor ... Lieutenant Percy
Lynda Boyd ... Edna
Bill Mondy ... McIntyre
Larry Merchant ... Vegas Commentator
Sugar Ray Leonard ... Vegas Commentator
Jimmy Lennon Jr. ... Vegas Ring Announcer
Joe Cortez ... Vegas Referee



Screenshots:

I Spy (2002)   DVDRip   MP3   ENG preview 0
I Spy (2002)   DVDRip   MP3   ENG preview 1
I Spy (2002)   DVDRip   MP3   ENG preview 2
I Spy (2002)   DVDRip   MP3   ENG preview 3




General
Complete name : I Spy (2002) - DVDRip - MP3 - ENG.avi
Format : AVI
Source : PAL DVD
File size : 700 MiB
Duration : 1h 32mn
Overal bit rate : 1058 Kbps
Language : English
Subtitles : Hardcoded when needed

Video
Format : MPEG-4 Visual
Codec ID : XviD
Duration : 1h 32mn
Bit rate : 922 Kbps
Width : 608 pixels
Height : 336 pixels
Display aspect ratio : 16/9
Frame rate : 25.000 fps
Resolution : 8 bits
Colorimetry : 4:2:0
Scan type : Progressive
Bits/(Pixel*Frame) : 0.181
Stream size : 611 MiB (87%)
Writing library : XviD 1.1.2 (UTC 2006-11-01)

Audio
Format : MPEG Audio
Format version : Version 1
Format profile : Layer 3
Codec ID : 55
Codec ID/Hint : MP3
Duration : 1h 32mn
Bit rate mode : Constant
Bit rate : 128 Kbps
Channel(s) : 2 channels
Sampling rate : 48.0 KHz
Resolution : 16 bits
Stream size : 84.8 MiB (12%)
Writing library : LAME3.97
Encoding settings : CBR



Trackers:

http://inferno.demonoid.com:3398/announce
http://tpb.tracker.thepiratebay.org:80/announce
http://bandit.ukb-kvcd.com:5600/announce
http://www.torrent-downloads.to:5869/announce
http://vip.tracker.thepiratebay.org/announce



Info Hash: 2C740730B0E50EFB13665C99F4868173353A53C3




Enjoy

related torrents

Torrent name

health leech seeds Size
 


comments (0)

Main Menu