Action

Hush 2009 DVDRIP XviD ZEKTORM

  • Download 5x Faster
  • Download torrent
  • Direct Download
  • Rate this torrent +  |  -
Hush 2009 DVDRIP XviD ZEKTORM

Anonymous and Free Direct Download 300GB+


Torrent info

Name:Hush 2009 DVDRIP XviD ZEKTORM

Total Size: 701.00 MB

Magnet: Magnet Link

Seeds: 30

Leechers: 8

Stream: Watch Online @ Movie4u

Last Updated: 0000-00-00 00:00:00 (Update Now)

Torrent added: 2009-08-22 02:25:52



VPN For Torrents

Torrent Files List


Torrent downloaded from Demonoid.com.txt (Size: 701.00 MB) (Files: 3)

 Torrent downloaded from Demonoid.com.txt

0.05 KB

 READ.hlp

10.97 KB

 H-ZEKTORM.avi

700.98 MB
 

Announce URL: http://inferno.demonoid.com:3417/announce

Torrent description

Title : Hush
Year : 2009
Genre : Thriller
iMDB URL : http://www.imdb.com/title/tt1093369/

Complete name : H-ZEKTORM.avi
Format : AVI
File size : 701 MiB
Duration : 1h 27mn
Overall bit rate : 1120 Kbps
Source : DVD PAL

Video
Format : MPEG-4 Visual
Format profile : Streaming [email protected]
Codec ID : XVID
Codec ID/Hint : XviD
Duration : 1h 27mn
Bit rate : 1002 Kbps
Width : 720 pixels
Height : 304 pixels
Display aspect ratio : 2.35
Frame rate : 25.000 fps
Resolution : 24 bits
Colorimetry : 4:2:0
Scan type : Progressive
Bits/(Pixel*Frame) : 0.183
Stream size : 627 MiB (89%)
Writing library : XviD

Audio
Format : MPEG Audio
Format version : Version 1
Format profile : Layer 3
Codec ID : 55
Codec ID/Hint : MP3
Duration : 1h 27mn
Bit rate mode : Variable
Bit rate : 105 Kbps
Minimum bit rate : 128 Kbps
Channel(s) : 2 channels
Sampling rate : 48.0 KHz
Resolution : 16 bits
Stream size : 65.8 MiB (9%)
Writing library : LAME3.98r
Encoding settings : ABR

related torrents

Torrent name

health leech seeds Size

Hush {2009} DVDRIP Jaybob

17 7 840.79 MB 0
 


comments (0)

Main Menu