Action

Howl's Moving Castle Hauru no ugoku shiro[2004]DvDrip La Vela avi

  • Download 5x Faster
  • Download torrent
  • Direct Download
  • Rate this torrent +  |  -


Torrent info

Name:Howl's Moving Castle Hauru no ugoku shiro[2004]DvDrip La Vela avi

Total Size: 1.70 GB

Magnet: Magnet Link

Seeds: 0

Leechers: 0

Stream: Watch Online @ Movie4u

Last Updated: 0000-00-00 00:00:00 (Update Now)

Torrent added: 2009-08-22 02:23:09



VPN For Torrents

Torrent Files List


Torrent downloaded from Demonoid.com.txt (Size: 1.70 GB) (Files: 21)

 Torrent downloaded from Demonoid.com.txt

0.05 KB

 MediaFile.txt

3.58 KB

 Poster[DXO].jpg

84.55 KB

 Howl's Moving Castle[2004]DvDrip Tri Audio[Eng Jap Fre]AC3 5.1[DXO].Vietnamese.srt

97.21 KB

 Howl's Moving Castle[2004]DvDrip Tri Audio[Eng Jap Fre]AC3 5.1[DXO].Spanish.srt

74.85 KB

 Howl's Moving Castle[2004]DvDrip Tri Audio[Eng Jap Fre]AC3 5.1[DXO].Slovenian.srt

72.89 KB

 Howl's Moving Castle[2004]DvDrip Tri Audio[Eng Jap Fre]AC3 5.1[DXO].Serbian.srt

68.42 KB

 Howl's Moving Castle[2004]DvDrip Tri Audio[Eng Jap Fre]AC3 5.1[DXO].Portuguese.srt

67.44 KB

 Howl's Moving Castle[2004]DvDrip Tri Audio[Eng Jap Fre]AC3 5.1[DXO].Polish.srt

64.34 KB

 Howl's Moving Castle[2004]DvDrip Tri Audio[Eng Jap Fre]AC3 5.1[DXO].Hungarian.srt

77.09 KB

 Howl's Moving Castle[2004]DvDrip Tri Audio[Eng Jap Fre]AC3 5.1[DXO].Hebrew.srt

60.48 KB

 Howl's Moving Castle[2004]DvDrip Tri Audio[Eng Jap Fre]AC3 5.1[DXO].French.srt

75.85 KB

 Howl's Moving Castle[2004]DvDrip Tri Audio[Eng Jap Fre]AC3 5.1[DXO].Finnish.srt

70.58 KB

 Howl's Moving Castle[2004]DvDrip Tri Audio[Eng Jap Fre]AC3 5.1[DXO].Estonian.srt

72.99 KB

 Howl's Moving Castle[2004]DvDrip Tri Audio[Eng Jap Fre]AC3 5.1[DXO].Esperanto.srt

64.86 KB

 Howl's Moving Castle[2004]DvDrip Tri Audio[Eng Jap Fre]AC3 5.1[DXO].English[Jap Audio].srt

76.28 KB

 Howl's Moving Castle[2004]DvDrip Tri Audio[Eng Jap Fre]AC3 5.1[DXO].English[Eng Audio].srt

81.61 KB

 Howl's Moving Castle[2004]DvDrip Tri Audio[Eng Jap Fre]AC3 5.1[DXO].Dutch.srt

76.56 KB

 Howl's Moving Castle[2004]DvDrip Tri Audio[Eng Jap Fre]AC3 5.1[DXO].Bulgarian.srt

78.04 KB

 Howl's Moving Castle[2004]DvDrip Tri Audio[Eng Jap Fre]AC3 5.1[DXO].avi

1.70 GB

 Howl's Moving Castle[2004]DvDrip Tri Audio[Eng Jap Fre]AC3 5.1[DXO].Arabic.srt

68.68 KB
 

Announce URL: http://tracker.publicbt.com/announce

Torrent description

General
Complete name : Howl's Moving Castle-Hauru no ugoku shiro[2004]DvDrip.La.Vela.avi
Language : English/French/Japanese
Subtitels : Multi-Subs
Format : AVI
Format/Info : Audio Video Interleave
Format profile : OpenDML
File size : 1.70 GiB
Duration : 1h 59mn
Overall bit rate : 2 040 Kbps
Movie name : Howl's Moving Castle (Hauru no ugoku shiro)
Writing application : AVI-Mux GUI 1.17.8, Aug 30 2008 12:36:58

Video
Format : MPEG-4 Visual
Format profile : Streaming [email protected]
Format settings, BVOP : Yes
Format settings, QPel : No
Format settings, GMC : No warppoints
Format settings, Matrix : Custom
Codec ID : XVID
Codec ID/Hint : XviD
Duration : 1h 59mn
Bit rate : 1 007 Kbps
Width : 640 pixels
Height : 360 pixels
Display aspect ratio : 16/9
Frame rate : 23.976 fps
Resolution : 24 bits
Colorimetry : 4:2:0
Scan type : Progressive
Bits/(Pixel*Frame) : 0.182
Stream size : 858 MiB (49%)
Writing library : XviD 1.2.1 (UTC 2008-12-04)

Audio #1
Format : AC-3
Format/Info : Audio Coding 3
Codec ID : 2000
Duration : 1h 59mn
Bit rate mode : Constant
Bit rate : 448 Kbps
Channel(s) : 6 channels
Channel positions : Front: L C R, Surround: L R, LFE
Sampling rate : 48.0 KHz
Stream size : 382 MiB (22%)
Alignment : Aligned on interleaves
Interleave, duration : 64 ms (1.53 video frames)
Interleave, preload duration : 192 ms
Title : Japanese 5.1

Audio #2
Format : AC-3
Format/Info : Audio Coding 3
Codec ID : 2000
Duration : 1h 59mn
Bit rate mode : Constant
Bit rate : 384 Kbps
Channel(s) : 6 channels
Channel positions : Front: L C R, Surround: L R, LFE
Sampling rate : 48.0 KHz
Stream size : 327 MiB (19%)
Alignment : Aligned on interleaves
Interleave, duration : 64 ms (1.53 video frames)
Interleave, preload duration : 192 ms
Title : English 5.1

Audio #3
Format : AC-3
Format/Info : Audio Coding 3
Codec ID : 2000
Duration : 1h 59mn
Bit rate mode : Constant
Bit rate : 192 Kbps
Channel(s) : 2 channels
Channel positions : L R
Sampling rate : 48.0 KHz
Stream size : 164 MiB (9%)
Alignment : Aligned on interleaves
Interleave, duration : 64 ms (1.53 video frames)
Interleave, preload duration : 192 ms
Title : French 2.0

related torrents

Torrent name

health leech seeds Size
 


comments (0)

Main Menu