Action

Hollywood Homicide (2003) DVDRip MP3 ENG

  • Download 5x Faster
  • Download torrent
  • Direct Download
  • Rate this torrent +  |  -
Hollywood Homicide (2003) DVDRip MP3 ENG

Free and Direct Download with Usenet 300GB+ free


Torrent info

Name:Hollywood Homicide (2003) DVDRip MP3 ENG

Total Size: 704.49 MB

Magnet: Magnet Link

Seeds: 0

Leechers: 0

Stream: Watch Online @ Movie4u

Last Updated: 0000-00-00 00:00:00 (Update Now)

Torrent added: 2009-08-22 02:16:38




Torrent Files List


Tracked_by_Demonoid_com.txt (Size: 704.49 MB) (Files: 3)

 Tracked_by_Demonoid_com.txt

0.03 KB

 Hollywood Homicide (2003) - DVDRip - MP3 - ENG.nfo

11.61 KB

 Hollywood Homicide (2003) - DVDRip - MP3 - ENG.avi

704.48 MB
 

Announce URL:

Torrent description

Hollywood Homicide 2003

IMDB: http://www.imdb.com/title/tt0329717
User Rating: 5.2/10 (12,799 votes)
Release Date: 29 August 2003 (UK)
Genre: Action | Comedy | Crime | Thriller
Tagline: In Hollywood, no one is who they really want to be.

When not solving murders in Tinseltown, Detective Joe Gavilan and his rookie partner Kasey Calden
both moonlight in other fields: Gavilan sells real estate (poorly), and Calden aspires to become
an actor (Brando, namely). Assigned to the vicious in-club slaying of a promising young rap act, the
two detective delve into the recording industry where they hope to find answers - ideally ones
that also come with property buyers or auditions.

Cast:

Harrison Ford ... Sgt. Joe Gavilan
Josh Hartnett ... Det. K.C. Calden
Lena Olin ... Ruby
Bruce Greenwood ... Lt. Bennie Macko
Isaiah Washington ... Antoine Sartain
Lolita Davidovich ... Cleo Ricard
Keith David ... Leon
Master P ... Julius Armas
Gladys Knight ... Olivia Robidoux
Lou Diamond Phillips ... Wanda
Meredith Scott Lynn ... I.A. Detective Jackson
Tom Todoroff ... I.A. Detective Zino
James MacDonald ... Danny Broome
Kurupt ... K-Ro
André Benjamin ... Silk Brown (as Andre Benjamin)



Screenshots:

Hollywood Homicide (2003)   DVDRip   MP3   ENG preview 0
Hollywood Homicide (2003)   DVDRip   MP3   ENG preview 1
Hollywood Homicide (2003)   DVDRip   MP3   ENG preview 2
Hollywood Homicide (2003)   DVDRip   MP3   ENG preview 3




General
Complete name : Hollywood Homicide.avi
Format : AVI
Source : PAL DVD
File size : 704 MiB
Duration : 1h 51mn
Overal bit rate : 885 Kbps
IAS1 : English

Video
Format : MPEG-4 Visual
Codec ID : XVID
Duration : 1h 51mn
Bit rate : 766 Kbps
Width : 608 pixels
Height : 256 pixels
Display aspect ratio : 2.35
Frame rate : 25.000 fps
Resolution : 8 bits
Colorimetry : 4:2:0
Scan type : Progressive
Bits/(Pixel*Frame) : 0.197
Stream size : 610 MiB (87%)

Audio
Format : MPEG Audio
Format version : Version 1
Format profile : Layer 3
Codec ID : 55
Codec ID/Hint : MP3
Duration : 1h 51mn
Bit rate mode : Constant
Bit rate : 112 Kbps
Minimum bit rate : 112 Kbps
Channel(s) : 2 channels
Sampling rate : 44.1 KHz
Resolution : 16 bits
Stream size : 89.1 MiB (13%)
Writing library : LAME3.97
Encoding settings : CBR

Trackers:

http://inferno.demonoid.com:3395/announce
http://www.torrent-downloads.to:5869/announce
http://open.tracker.thepiratebay.org:80/announce
http://tpb.tracker.thepiratebay.org:80/announce
http://vip.tracker.thepiratebay.org/announce


Info Hash:

682B1C594F2FFD1A6D9DDCA7AFD98E53879295A2

related torrents

Torrent name

health leech seeds Size
 

comments (0)

Main Menu