Action

GREENSTREET 2[STAND YOUR GROUND]@H 264 RIP BY KIDZCORNER

  • Download 5x Faster
  • Download torrent
  • Direct Download
  • Rate this torrent +  |  -
GREENSTREET 2[STAND YOUR GROUND]@H 264 RIP BY KIDZCORNER

Anonymous and free Direct Download 300GB+


Torrent info

Name:GREENSTREET 2[STAND YOUR GROUND]@H 264 RIP BY KIDZCORNER

Total Size: 681.50 MB

Magnet: Magnet Link

Seeds: 1

Leechers: 1

Stream: Watch Online @ Movie4u

Last Updated: 0000-00-00 00:00:00 (Update Now)

Torrent added: 2009-08-22 01:49:38



VPN For Torrents

Torrent Files List


GS2.mp4 (Size: 681.50 MB) (Files: 4)

 GS2.mp4

680.19 MB

 SINGLE FRONT.jpg

29.81 KB

 Torrent downloaded from Demonoid.com.txt

0.05 KB

 Green_Street_2_Custom-[cdcovers_cc]-front.jpg

1.28 MB
 

Announce URL: http://nyaatorrents.org:3277/announce

Torrent description

When the top players of the Green Street Elite are imprisoned following a deadly battle with their archenemies Millwall every day becomes a fight for survival. On the inside, rival firms and prison guards will stop at nothing to make their lives a living hell, leaving the lads with no choice but to stand their ground and fight. Find out what happens when the two most fearsome and notorious firms collide behind bars. The stakes are the highest they have ever been for all concerned with death or freedom quite literally a goal away.

Writing application : HandBrake 0.9.3 2008112300

Video
Format : AVC
Format/Info : Advanced Video Codec
Format profile : [email protected]
Format settings, CABAC : Yes
Format settings, ReFrames : 3 frames
Codec ID : avc1
Codec ID/Info : Advanced Video Coding
Duration : 1h 30mn
Bit rate mode : Variable
Bit rate : 888 Kbps
Nominal bit rate : 920 Kbps
Width : 702 pixels
Height : 556 pixels
Display aspect ratio : 16/9
Frame rate mode : Variable
Frame rate : 25.000 fps
Minimum frame rate : 12.500 fps
Maximum frame rate : 25.614 fps
Resolution : 24 bits
Colorimetry : 4:2:0
Scan type : Progressive
Bits/(Pixel*Frame) : 0.091
Stream size : 574 MiB (84%)
Writing library : x264 core 65


Audio
Format : AAC
Format/Info : Advanced Audio Codec
Format version : Version 4
Format profile : LC
Format settings, SBR : No
Codec ID : 40
Duration : 1h 30mn
Bit rate mode : Variable
Bit rate : 160 Kbps
Maximum bit rate : 224 Kbps
Channel(s) : 2 channels
Channel positions : L R
Sampling rate : 48.0 KHz
Resolution : 16 bits
Stream size : 103 MiB (15%)
Language : English
Encoded date : UTC 2009-04-05 12:39:45
Tagged date : UTC 2009-04-05 17:43:48

related torrents

Torrent name

health leech seeds Size
 


comments (0)

Main Menu