Action

Gladiator(2000)Hindi VCDRip XviD ~ Smeet

  • Download 5x Faster
  • Download torrent
  • Direct Download
  • Rate this torrent +  |  -
Gladiator(2000)Hindi VCDRip XviD ~ Smeet

Free and Direct Download with Usenet.nl 300GB+ free


Torrent info

Name:Gladiator(2000)Hindi VCDRip XviD ~ Smeet

Total Size: 803.01 MB

Magnet: Magnet Link

Seeds: 0

Leechers: 0

Stream: Watch Online @ Movie4u

Last Updated: 0000-00-00 00:00:00 (Update Now)

Torrent added: 2009-08-22 01:43:43





Torrent Files List


smeet.nfo (Size: 803.01 MB) (Files: 4)

 smeet.nfo

7.18 KB

 thumbs20090811004802.jpg

163.69 KB

 sample.avi

4.03 MB

 Gladiator(2000)Hindi-VCDRip-XviD ~ Smeet.avi

798.82 MB
 

Announce URL: http://tracker.torrentbox.com:2710/announce

Torrent description


################## TM
##^^^^^^^^^^^^^^^^####
############## #^^^^^^^^^^^^^^^^^^^##
###### #### #########^^^^^# #^^^^^#########^^^^^#
###### ####### ###########^^^# #^^^^^^^^^^^^^#^^^^^#
####### ####### ############^^## #^^^^^^^^^^^^^#^^^^^#
################################# ############^^^###^^^^^^^^^^^^^#^^^^^#
############################################^#^^#^^^^^^^^^^^^^^^^#^^^^^#
#####################################^^^^^^^^#^^#########^^^#######^^^^#####
####################################^^^^^^^^^##^^^^^^^^^##^^#^^^^^^^^^^^^^^##
####################################^^^^^^^^^^###^^^^^^^^#^^#^^^^^^^^^^^^^^^##
######################### ##########^^^^^####^^##^^^^^^^^#^^#^^^^^^^^^^^^^^^##
####################################^########^^#^#########^^######^^^^^######
#############################################^^#^#^^^^^^^^^^^^^^^#^^^^^#
##############################################^#^#^^^^^^^^^^^^^^^#^^^^^#
##############################################^#^#^^^^^^^^^^^^^^^#^^^^^#
##################################^^^^^^^^^^#^#^^^^^^^^^^^^^^^#^^^^^#
############################################^^^#^##^^^^^^^^^^^^^^#^^^^^#
##############################################^#^^^###^^^^^^^^^^^#^^^^^#
#################################################^^^^#^^^^^^^^^^^#^^^^^#
###############################################^######^^^^^^^^^^^#^^^^^#
###################### ###### ##############^^^^^^^^^^^########^^^^^#
###################### ###### ##############^^##^^^^^^^# #^^^^^^#
###################### ###### ##################^^^^^^^# #^^^^^^#
############## ############### ######^^# ########
############## ############### ###
#############
MEANS QUALITY

=======================================================
= Gladiator (2000) =
=======================================================

|##############################################################################|
| |
|GENERAL INFORMATION |
|=================== |
|Format : AVI |
|Format/Info : Audio Video Interleave |
|Format profile : OpenDML |
|File size : 799 MiB |
|Duration : 2h 28mn |
|Overall bit rate : 752 Kbps |
|Language : Hindi Source: VCD |
|SUBTITLE : No |
|GENRE : Action | Adventure | Drama | History |
|IMDB LINK : http://www.imdb.com/title/tt0172495/ |
|IMDB RATING : 8.3/10 |
|RIPPER : SMEET |
|##############################################################################|

|##############################################################################|
| |
|Video |
|Format : MPEG-4 Visual |
|Format settings, Matrix : Custom |
|Codec ID : XVID |
|Codec ID/Hint : XviD |
|Duration : 2h 28mn |
|Width : 592 pixels |
|Height : 432 pixels |
|Display aspect ratio : 1.370 |
|Frame rate : 25.000 fps |
|Resolution : 24 bits |
|Colorimetry : 4:2:0 |
|Scan type : Progressive |
|Bits/(Pixel*Frame) : 0.100 |
|Stream size : 676 MiB (85%) |
|Writing library : XviD 1.2.1 (UTC 2008-12-04) rter. |
|##############################################################################|
|Audio |
|Format : MPEG Audio |
|Format version : Version 1 |
|Format profile : Layer 3 |
|Codec ID : 55 |
|Codec ID/Hint : MP3 |
|Duration : 2h 28mn |
|Bit rate mode : Constant |
|Bit rate : 112 Kbps |
|Channel(s) : 2 channels |
|Sampling rate : 44.1 KHz |
|Resolution : 16 bits |
|Stream size : 119 MiB (15%) |
|Alignment : Aligned on interleaves |
|Interleave, duration : 912 ms (22.79 video frames) |
|Interleave, preload duration : 208 ms |
|Title : glad~smeet T80 2_0ch 192Kbps DELAY 0ms0ms |
|Writing library : LAME3.98r |
|Encoding settings : -m j -V 4 -q 2 -lowpass 15.6 -b 112 |
| |
| ALL MY RELEAASES AVAILABLE AT http://thepiratebay.org/user/bonkingph/ |
| http://www.ahashare.com/account-details.php?id=28583 |
|##############################################################################|
www.AhaShare.Com

related torrents

Torrent name

health leech seeds Size
 

comments (0)

Main Menu