Action

Ghosts of Mars 2001 DVDRIP ZEKTORM

  • Download 5x Faster
  • Download torrent
  • Direct Download
  • Rate this torrent +  |  -
Ghosts of Mars 2001 DVDRIP ZEKTORM

Free and Direct Download with Usenet 300GB+ free


Torrent info

Name:Ghosts of Mars 2001 DVDRIP ZEKTORM

Total Size: 711.50 MB

Magnet: Magnet Link

Seeds: 10

Leechers: 1

Stream: Watch Online @ Movie4u

Last Updated: 2012-05-18 02:10:59 (Update Now)

Torrent added: 2009-08-22 01:42:07




Torrent Files List


Subs (Size: 711.50 MB) (Files: 4)

 Subs

  Ghosts.of.Mars.2001.DVDRIP-ZEKTORM.sub

11.50 MB

  Ghosts.of.Mars.2001.DVDRIP-ZEKTORM.idx

152.68 KB

 READ.hlp

12.49 KB

 Ghosts.of.Mars.2001.DVDRIP-ZEKTORM.mp4

699.83 MB
 

Announce URL: http://tracker.torrentbox.com:2710/announce

Torrent description

Title : Ghosts of Mars
Year : 2001
Genre : Action | Horror | Sci-Fi
iMDB Rate : User Rating: 4.7/10 15,824 votes
iMDB URL : http://www.imdb.com/title/tt0228333/
Awards : 1 nomination

Complete name : Ghosts.of.Mars.2001.DVDRIP-ZEKTORM.mp4
Format : MPEG-4
Format profile : Base Media
Codec ID : isom
File size : 700 MiB
Duration : 1h 34mn
Overall bit rate : 1040 Kbps
Subtitles : English, Spanish, Italian, Portuguese (Format: VobSub)
Source : DVD PAL
Encoded date : UTC 2009-01-26 20:30:21

Video
Format : AVC
Format/Info : Advanced Video Codec
Format profile : [email protected]
Format settings, CABAC : Yes
Format settings, ReFrames : 10 frames
Codec ID : avc1
Codec ID/Info : Advanced Video Coding
Duration : 1h 34mn
Bit rate mode : Variable
Bit rate : 951 Kbps
Maximum bit rate : 5521 Kbps
Width : 704 pixels
Height : 416 pixels
Display aspect ratio : 2.462
Frame rate mode : Constant
Frame rate : 25.000 fps
Resolution : 24 bits
Colorimetry : 4:2:0
Scan type : Progressive
Bits/(Pixel*Frame) : 0.130
Stream size : 640 MiB (91%)

Audio
Format : AAC
Format/Info : Advanced Audio Codec
Format version : Version 4
Format profile : LC
Format settings, SBR : Yes
Format settings, PS : No
Codec ID : 40
Duration : 1h 34mn
Bit rate mode : Variable
Bit rate : 85.7 Kbps
Maximum bit rate : 106 Kbps
Channel(s) : 2 channels
Channel positions : L R
Sampling rate : 48.0 KHz
Resolution : 16 bits
Stream size : 57.7 MiB (8%)
Title : English
Language : English

Notes : Convert to DVD with Nero

related torrents

Torrent name

health leech seeds Size
 

comments (0)

Main Menu