Action

Ghajini 2009 STV DVDRiP XviD FLF

  • Download 5x Faster
  • Download torrent
  • Direct Download
  • Rate this torrent +  |  -
Ghajini 2009 STV DVDRiP XviD FLF

Anonymous and free Direct Download 300GB+


Torrent info

Name:Ghajini 2009 STV DVDRiP XviD FLF

Total Size: 780.28 MB

Magnet: Magnet Link

Seeds: 0

Leechers: 0

Stream: Watch Online @ Movie4u

Last Updated: 2010-10-02 20:01:57 (Update Now)

Torrent added: 2009-08-22 01:40:32



VPN For Torrents

Torrent Files List


Ghajini.2009.STV.DVDRiP.XviD-FLF.nfo (Size: 780.28 MB) (Files: 3)

 Ghajini.2009.STV.DVDRiP.XviD-FLF.nfo

12.31 KB

 Ghajini.2009.STV.DVDRiP.XviD-FLF.ENG.srt

112.20 KB

 Ghajini.2009.STV.DVDRiP.XviD-FLF.avi

780.16 MB
 

Announce URL: http://tracker.thepiratebay.org:80/announce

Torrent description

Ghajini Language : HINDI

2009 3H00mn Subtitles : FR / ENG

ACTION Release Date : 11/03/2009




http://www.imdb.com/title/tt1166100/
7.0/10 3,047 votes
***************************************************************************************
General
Complete name : Ghajini.2009.STV.DVDRiP.XviD-FLF
Format : AVI
Format/Info : Audio Video Interleave
File size : 780 MiB
Duration : 3h 4mn
Overall bit rate : 590 Kbps

Video
Format : MPEG-4 Visual
Format profile : Streaming [email protected]
Format settings, BVOP : Yes
Format settings, QPel : No
Format settings, GMC : No warppoints
Format settings, Matrix : Default
Muxing mode : Packed bitstream
Codec ID : XVID
Codec ID/Hint : XviD
Duration : 3h 4mn
Bit rate : 493 Kbps
Width : 576 pixels
Height : 240 pixels
Display aspect ratio : 2.400
Frame rate : 23.976 fps
Resolution : 24 bits
Colorimetry : 4:2:0
Scan type : Progressive
Bits/(Pixel*Frame) : 0.149
Stream size : 651 MiB (83%)
Writing library : XviD 1.2.1 (UTC 2008-12-04)

Audio
Format : MPEG Audio
Format version : Version 1
Format profile : Layer 3
Codec ID : 55
Codec ID/Hint : MP3
Duration : 3h 4mn
Bit rate mode : Constant
Bit rate : 32.0 Kbps
Channel(s) : 2 channels
Sampling rate : 32.0 KHz
Resolution : 16 bits
Stream size : 116 MiB (15%)
Alignment : Aligned on interleaves
Interleave, duration : 36 ms (0.86 video frame)
Interleave, preload duration : 504 ms
Writing library : LAME3.98.2
**************************************************************************************
USE VLC HARDWARE FOR LOOKING THIS OPTION > PARAMETERS > SUBTITLES

related torrents

Torrent name

health leech seeds Size

CJ7 STV DVDRIP XVID FLF

0 0 699.29 MB 0
 


comments (0)

Main Menu