Action

FORTRESS 2[1999] AC3 5 1 Dvdrip Maka6358 avi

  • Download 5x Faster
  • Download torrent
  • Direct Download
  • Rate this torrent +  |  -
FORTRESS 2[1999] AC3 5 1 Dvdrip Maka6358 avi

Anonymous and free Direct Download 300GB+


Torrent info

Name:FORTRESS 2[1999] AC3 5 1 Dvdrip Maka6358 avi

Total Size: 1.37 GB

Magnet: Magnet Link

Seeds: 1

Leechers: 1

Stream: Watch Online @ Movie4u

Last Updated: 2016-08-09 02:31:19 (Update Now)

Torrent added: 2009-08-22 01:26:17



VPN For Torrents

Torrent Files List


FORTRESS_2[1999]-AC3-5.1-Dvdrip-Maka6358.avi (Size: 1.37 GB) (Files: 1)

 FORTRESS_2[1999]-AC3-5.1-Dvdrip-Maka6358.avi

1.37 GB
 

tracker

leech seeds
 

Torrent description

7 years on from the original Fortress movie, Brennick and his family are still on the run from the Men-tel corporation. Finally, they give in, and surrender, only to find themselves imprisoned in a new, more sophisticated fortress prison in outer space. But Brennick's not a man to give in easily, and with a 10 year old son waiting for him back on earth, he's going to pack some serious assault on the evil corporation...

http://www.imdb.com/title/tt0179183/

General
Complete name : FORTRESS_2[1999]-AC3-5.1-Dvdrip-Maka6358.avi
Format : AVI
Format/Info : Audio Video Interleave
File size : 1.37 GiB
Duration : 1h 29mn
Overall bit rate : 2 200 Kbps
Writing application : VirtualDubMod 1.5.4.1 (build 2178/release)
Writing library : VirtualDubMod build 2178/release

Video
Format : MPEG-4 Visual
Format profile : Streaming [email protected]
Format settings, BVOP : Yes
Format settings, QPel : No
Format settings, GMC : No warppoints
Format settings, Matrix : Custom
Codec ID : XVID
Codec ID/Hint : XviD
Duration : 1h 29mn
Bit rate : 1 745 Kbps
Width : 720 pixels
Height : 400 pixels
Display aspect ratio : 16/9
Frame rate : 25.000 fps
Resolution : 24 bits
Colorimetry : 4:2:0
Scan type : Progressive
Bits/(Pixel*Frame) : 0.242
Stream size : 1.08 GiB (79%)
Writing library : XviD 1.2.0.dev47 (UTC 2006-11-01)

Audio
Format : AC-3
Format/Info : Audio Coding 3
Codec ID : 2000
Duration : 1h 29mn
Bit rate mode : Constant
Bit rate : 448 Kbps
Channel(s) : 6 channels
Channel positions : Front: L C R, Surround: L R, LFE
Sampling rate : 48.0 KHz
Stream size : 285 MiB (20%)
Alignment : Split accross interleaves
Interleave, duration : 96 ms (2.40 video frames)
Interleave, preload duration : 96 ms
Language : English

Info Hash : 30A50D7012862121945AF80CC4EB0C618698A7E1

related torrents

Torrent name

health leech seeds Size
 


comments (0)

Main Menu