Action

Extratorrent com Constantine[2005] BluRay{[{Superman}]}

  • Download 5x Faster
  • Download torrent
  • Direct Download
  • Rate this torrent +  |  -
Extratorrent com Constantine[2005] BluRay{[{Superman}]}

Free and Direct Download with Usenet.nl 300GB+ free


Torrent info

Name:Extratorrent com Constantine[2005] BluRay{[{Superman}]}

Total Size: 3.78 GB

Magnet: Magnet Link

Seeds: 1

Leechers: 2

Stream: Watch Online @ Movie4u

Last Updated: 2010-09-27 21:31:18 (Update Now)

Torrent added: 2009-08-22 01:06:12





Torrent Files List


ConstantineBluRay.avi (Size: 3.78 GB) (Files: 2)

 ConstantineBluRay.avi

3.78 GB

 SupermanTorrents.txt

2.10 KB
 

Announce URL: http://tv.tracker.prq.to/announce

Torrent description

Format : AVI
Format/Info : Audio Video Interleave
Format profile : OpenDML
File size : 3.78 GiB
Duration : 4h 35mn
Overall bit rate : 1 968 Kbps

Video
ID : 0
Format : MPEG-4 Visual
Format profile : [email protected]
Format settings, BVOP : No
Format settings, QPel : No
Format settings, GMC : No warppoints
Format settings, Matrix : Default (H.263)
Codec ID : DX50
Codec ID/Hint : DivX 5
Duration : 4h 35mn
Bit rate : 1 907 Kbps
Width : 1 280 pixels
Height : 720 pixels
Display aspect ratio : 16/9
Frame rate : 29.970 fps
Resolution : 24 bits
Colorimetry : 4:2:0
Scan type : Progressive
Bits/(Pixel*Frame) : 0.069
Stream size : 3.66 GiB (97%)

Audio
ID : 1
Format : MPEG Audio
Format version : Version 1
Format profile : Layer 3
Codec ID : 55
Codec ID/Hint : MP3
Duration : 2h 0mn
Bit rate mode : Constant
Bit rate : 128 Kbps
Channel(s) : 2 channels
Sampling rate : 44.1 KHz
Resolution : 16 bits
Stream size : 111 MiB (3%)
Alignment : Aligned on interleaves
Interleave, duration : 26 ms (0.78 video frame)
Interleave, preload duration : 26 ms
Writing library : LAME3.97


The story of irreverent supernatural detective John Constantine, who has literally been to Hell and back. When Constantine teams up with skeptical policewoman Angela Dodson to solve the mysterious suicide of her twin sister, their investigation takes them through the world of demons and angels that exists just beneath the landscape of contemporary Los Angeles. Caught in a catastrophic series of otherworldly events, the two become inextricably involved and seek to find their own peace at whatever cost.

related torrents

Torrent name

health leech seeds Size
 

comments (0)

Main Menu