Action

Extratorrent com Black Rain 1989 BluRay{[{Superman}]}

  • Download 5x Faster
  • Download torrent
  • Direct Download
  • Rate this torrent +  |  -

Torrent info

Name:Extratorrent com Black Rain 1989 BluRay{[{Superman}]}

Total Size: 1.35 GB

Magnet: Magnet Link

Seeds: 0

Leechers: 0

Stream: Watch Full Movie @ Movie4u

Last Updated: 2011-08-30 13:33:13 (Update Now)

Torrent added: 2009-08-22 01:06:11



VPN For Torrents

Torrent Files List


SupermanTorrents.txt (Size: 1.35 GB) (Files: 3)

 SupermanTorrents.txt

2.10 KB

 BlackRainBluRay1.mkv

690.09 MB

 BlackRainBluRay2.mkv

690.73 MB
 

Announce URL:

Torrent description

CD1
Format : Matroska
File size : 690 MiB
Duration : 1h 7mn
Overall bit rate : 1 427 Kbps
Encoded date : UTC 2009-07-29 13:28:06
Writing application : mkvmerge v2.6.0 ('Kelly watch the Stars') built on Mar 24 2009 15:23:17
Writing library : libebml v0.7.7 + libmatroska v0.8.1

Video
ID : 1
Format : MPEG-4 Visual
Format profile : Streaming [email protected]
Format settings, BVOP : Yes
Format settings, QPel : No
Format settings, GMC : No warppoints
Format settings, Matrix : Default (H.263)
Codec ID : XVID
Codec ID/Hint : XviD
Duration : 1h 7mn
Bit rate : 1 131 Kbps
Width : 688 pixels
Height : 288 pixels
Display aspect ratio : 2.35
Frame rate : 23.976 fps
Resolution : 24 bits
Colorimetry : 4:2:0
Scan type : Progressive
Bits/(Pixel*Frame) : 0.238
Stream size : 546 MiB (79%)
Writing library : XviD 1.2.1 (UTC 2008-12-04)

Audio #1
ID : 2
Format : MPEG Audio
Format version : Version 1
Format profile : Layer 3
Codec ID : A_MPEG/L3
Codec ID/Hint : MP3
Duration : 1h 7mn
Bit rate mode : Variable
Bit rate : 165 Kbps
Minimum bit rate : 32.0 Kbps
Channel(s) : 2 channels
Sampling rate : 48.0 KHz
Resolution : 16 bits
Stream size : 80.0 MiB (12%)
Writing library : LAME3.98
Encoding settings : -m j -V 3 -q 0 -lowpass 18 --vbr-new -b 32

Audio #2
ID : 3
Format : MPEG Audio
Format version : Version 1
Format profile : Layer 3
Codec ID : A_MPEG/L3
Codec ID/Hint : MP3
Duration : 1h 7mn
Bit rate mode : Variable
Bit rate : 102 Kbps
Minimum bit rate : 32.0 Kbps
Channel(s) : 1 channel
Sampling rate : 48.0 KHz
Resolution : 16 bits
Stream size : 49.3 MiB (7%)
Writing library : LAME3.98r
Encoding settings : -m m -V 4 -q 0 -lowpass 17.5 --vbr-new -b 32

CD2
Format : Matroska
File size : 691 MiB
Duration : 57mn 41s
Overall bit rate : 1 674 Kbps
Encoded date : UTC 2009-07-29 13:29:32
Writing application : mkvmerge v2.6.0 ('Kelly watch the Stars') built on Mar 24 2009 15:23:17
Writing library : libebml v0.7.7 + libmatroska v0.8.1

Video
ID : 1
Format : MPEG-4 Visual
Format profile : Streaming [email protected]
Format settings, BVOP : Yes
Format settings, QPel : No
Format settings, GMC : No warppoints
Format settings, Matrix : Default (H.263)
Codec ID : XVID
Codec ID/Hint : XviD
Duration : 57mn 38s
Width : 688 pixels
Height : 288 pixels
Display aspect ratio : 2.35
Frame rate : 23.976 fps
Resolution : 24 bits
Colorimetry : 4:2:0
Scan type : Progressive
Writing library : XviD 1.2.1 (UTC 2008-12-04)

Audio #1
ID : 2
Format : MPEG Audio
Format version : Version 1
Format profile : Layer 3
Codec ID : A_MPEG/L3
Codec ID/Hint : MP3
Duration : 57mn 41s
Bit rate mode : Variable
Channel(s) : 2 channels
Sampling rate : 48.0 KHz
Resolution : 16 bits

Audio #2
ID : 3
Format : MPEG Audio
Format version : Version 1
Format profile : Layer 3
Codec ID : A_MPEG/L3
Codec ID/Hint : MP3
Duration : 57mn 41s
Bit rate mode : Variable
Channel(s) : 1 channel
Sampling rate : 48.0 KHz
Resolution : 16 bits


Director:Ridley Scott
Writers (WGA):Craig Bolotin (written by) & Warren Lewis (written by)
Release Date:22 September 1989 (USA)
Genre:Action | Crime | Drama
Tagline:An American Cop in Japan. Their country. Their laws. Their game. His rules.
Plot:Two New York cops get involved in a gang war between members of the Yakuza, the Japanese Mafia. They arrest one of their killers and are ordered to escort him back to Japan. In Japan, however, he manages to escape. As they try to track him down, they get deeper and deeper into the Japanese Mafia scene and they have to learn that they can only win by playing the game the Japanese way.

related torrents

Torrent name

health leech seeds Size
 


comments (0)

Main Menu

 

script data-cfasync="false" src="//d2ghscazvn398x.cloudfront.net/?cshgd=690275">