Action

Everybody Dies AC3 5,1 DVDRip[Eng]2009

  • Download 5x Faster
  • Download torrent
  • Direct Download
  • Rate this torrent +  |  -
Everybody Dies AC3 5,1 DVDRip[Eng]2009

Anonymous and Free Direct Download 300GB+


Torrent info

Name:Everybody Dies AC3 5,1 DVDRip[Eng]2009

Total Size: 1.20 GB

Magnet: Magnet Link

Seeds: 1

Leechers: 4

Stream: Watch Online @ Movie4u

Last Updated: 2010-09-22 12:23:41 (Update Now)

Torrent added: 2009-08-22 00:58:34



VPN For Torrents

Torrent Files List


Torrent downloaded from Demonoid.com.txt (Size: 1.20 GB) (Files: 3)

 Torrent downloaded from Demonoid.com.txt

0.05 KB

 Everybody Dies-AC3-5,1-DVDRip[Eng]2009.avi

1.20 GB

 Everybody Dies-AC3-5,1-DVDRip[Eng]2009-Info.txt

2.68 KB
 

Announce URL: http://inferno.demonoid.com:3415/announce

Torrent description

http://www.imdb.com/title/tt1409090/

User Rating:3.6/10 - 59 votes.

Release date:

Country Date
USA - 2 May 2009 (Los Angeles, California)

Action.

Director:Josh Evans

Cast:Joanne Baron/Sergio d'Amato/Federico Galavis, and others.

Plot:
Veteran hitman Jake Lead has second thoughts about knocking off his latest target - Nina Conrad, a tough-talking loner with lots to hide.
When he tracks her down, he immediately feels an unusual connection and becomes determined to keep her alive...at any cost. Soon Jake and
Nina are on the run, their need for each other growing as they lead a bloody rampage through Los Angeles...

Info:

General
Complete name : Everybody Dies-AC3-5,1-DVDRip[Eng]2009.avi
Format : AVI
Format/Info : Audio Video Interleave
File size : 1.20 GiB
Duration : 1h 16mn
Overall bit rate : 2 264 Kbps
Writing application : VirtualDubMod 1.5.4.1 (build 2178/release)
Writing library : VirtualDubMod build 2178/release

Video
Format : MPEG-4 Visual
Format profile : [email protected]
Format settings, BVOP : No
Format settings, QPel : No
Format settings, GMC : No warppoints
Format settings, Matrix : Default
Codec ID : XVID
Codec ID/Hint : XviD
Duration : 1h 16mn
Bit rate : 1 809 Kbps
Width : 720 pixels
Height : 416 pixels
Display aspect ratio : 16/9
Frame rate : 23.976 fps
Resolution : 24 bits
Colorimetry : 4:2:0
Scan type : Progressive
Bits/(Pixel*Frame) : 0.252
Stream size : 985 MiB (80%)
Writing library : XviD 50

Audio
Format : AC-3
Format/Info : Audio Coding 3
Codec ID : 2000
Duration : 1h 16mn
Bit rate mode : Constant
Bit rate : 448 Kbps
Channel(s) : 6 channels
Channel positions : Front: L C R, Surround: L R, LFE
Sampling rate : 48.0 KHz
Stream size : 244 MiB (20%)
Alignment : Split accross interleaves
Interleave, duration : 83 ms (2.00 video frames)
Interleave, preload duration : 500 ms
Language : English

Enjoy....

related torrents

Torrent name

health leech seeds Size
 


comments (0)

Main Menu