Action

Eraser(1996)DVDrip XviD [5 1CH] ={DaBaS}=™

  • Download 5x Faster
  • Download torrent
  • Direct Download
  • Rate this torrent +  |  -
Eraser(1996)DVDrip XviD [5 1CH] ={DaBaS}=™

Free and Direct Download with Usenet.nl 300GB+ free


Torrent info

Name:Eraser(1996)DVDrip XviD [5 1CH] ={DaBaS}=™

Total Size: 702.14 MB

Magnet: Magnet Link

Seeds: 0

Leechers: 0

Stream: Watch Online @ Movie4u

Last Updated: 2016-08-13 08:22:46 (Update Now)

Torrent added: 2009-08-22 00:55:56





Torrent Files List


Torrent_downloaded_from_Demonoid.com.txt (Size: 702.14 MB) (Files: 3)

 Torrent_downloaded_from_Demonoid.com.txt

0.05 KB

 Eraser.DaBaS.nfo

3.44 KB

 Eraser(1996)DVDrip.XviD.[5.1CH].DaBaS.avi

702.13 MB
 

tracker

leech seeds
 

Torrent description

*******************************************************************
============= D a B a S ==============

*******************************************************************
Movie : Eraser
Format/Info : AVI (Audio Video Interleave)
File size : 702 MiB
Duration : 1h 54mn
Year : 1996
IMDB URL : http://www.imdb.com/title/tt0116213/
Source : DVD (NTSC)
*******************************************************************
=====
Video
=====
Format : MPEG-4 Visual
Codec ID : XVID
Bit rate : 467 Kbps
Width : 528 pixels
Height : 240 pixels
Display aspect ratio : 2.2
Frame rate : 23.976 fps
Resolution : 24 bits
Colorimetry : 4:2:0
Scan type : Progressive
Bits/(Pixel*Frame) : 0.154
Stream size : 382 MiB (54%)
Writing library : XviD 55
*******************************************************************
=====
Audio
=====
Format : AC-3
Bit rate mode : Constant
Bit rate : 384 Kbps
Channel(s) : 6 channels
Channel positions : Front: L C R, Surround: L R, LFE
Sampling rate : 48.0 KHz
Video delay : 1s 17ms
Stream size : 314 MiB (45%)
Alignment : Split accross interleaves
Interleave, duration : 96 ms (2.30 video frames)
*******************************************************************
Storyline :-
============
John Kruger works for a branch of the Justice Department call Witness
Security or Witsec, that\'s responsible for relocatibng and protecting
witnesses. John\'s latest assignment is Lee Cullen, who works for a
company that\'s a Defense Contractor, who is selling weapons to enemies
of the U.S. When she agrees to get the evidence that the Feds need to
take them down, she goes in and does it but was not told by the Feds
that she was going to have a bullseye on her for the rest of her life.
After refusing to be placed in Kruger\'s custody, some men attack her
home but Kruger arrives just in time to save her and relocate. Later
when several witnesses under Witsec are killed, Kruger accompanies
another Witsec agent Deguerin to save a potential victim, when they
get there, Deguerin shoots the killer but also kills the witness, and
then plants a photo of Lee in the shooter\'s pocket. When Kruger sees
the photo, Deguerin asks where she is, Kruger intially gives him a
false location but while on the plane, Kruger sensing something\'s not
right, calls her, which means that she is suppose to meet him somewhere.
Kruger\'s drugged and when he awakens he discovers that Deguerin is not
only working with the people who are trying to sell the weapons but has
just framed him for killing another agent. Kruger escapes and gets to
Lee in time but unfortunately, he is still a fugitive, so he must try
and prove his innocence while trying to protect Lee.
*********************************************************************
Enjoy & Seed....

DaBaS

*************************************************
************S C R E E N S H O T S****************
*************************************************
Eraser(1996)DVDrip XviD [5 1CH] ={DaBaS}=™ preview 0
Eraser(1996)DVDrip XviD [5 1CH] ={DaBaS}=™ preview 1
Eraser(1996)DVDrip XviD [5 1CH] ={DaBaS}=™ preview 2
Eraser(1996)DVDrip XviD [5 1CH] ={DaBaS}=™ preview 3
Eraser(1996)DVDrip XviD [5 1CH] ={DaBaS}=™ preview 4

related torrents

Torrent name

health leech seeds Size

Eraser 1996 DivX ENG

2 0 700.38 MB 0
 

comments (0)

Main Menu