Action

Enemy Of The State[1998]DVDrip[WS]AC 3[5 1][Eng] Atlas47

  • Download 5x Faster
  • Download torrent
  • Direct Download
  • Rate this torrent +  |  -
Enemy Of The State[1998]DVDrip[WS]AC 3[5 1][Eng] Atlas47

Free and Direct Download with Usenet.nl 300GB+ free


Torrent info

Name:Enemy Of The State[1998]DVDrip[WS]AC 3[5 1][Eng] Atlas47

Total Size: 1.37 GB

Magnet: Magnet Link

Seeds: 2

Leechers: 2

Stream: Watch Online @ Movie4u

Last Updated: 2010-09-19 07:08:41 (Update Now)

Torrent added: 2009-08-22 00:53:25





Torrent Files List


ResourceRG_NFO_please_read.txt (Size: 1.37 GB) (Files: 5)

 ResourceRG_NFO_please_read.txt

20.91 KB

 Enemy Of The State.nfo

10.14 KB

 Enemy Of The State.srt

134.23 KB

 Enemy Of The State.avi

1.37 GB

 Covers

  Enemy Of The State.jpg

330.71 KB
 

Announce URL: http://tracker.thepiratebay.org:80/announce

Torrent description


±±±±±±±±±±±±±±±±±±±±±±±±±±±±±±±±±±±±±±±±±±±±±±±±±±±±±±±±±±±±±±±±±±±±±±±±±±±±±±±±
± ±
± INFO: ±
± ±
± General ±
± Complete name : Enemy Of The State ±
± Genre : Action / Drama / Thriller ±
± Format : AVI ±
± Format/Info : Audio Video Interleave ±
± File size : 1.37 GiB ±
± Duration : 2h 13mn ±
± Overall bit rate : 1 466 Kbps ±
± Writing application : VirtualDubMod 1.5.4.1 (build 2178/release)±
± Writing library : VirtualDubMod build 2178/release ±
± ±
± Video ±
± Format : MPEG-4 Visual ±
± Format settings, BVOP : Yes ±
± Format settings, QPel : No ±
± Format settings, GMC : No warppoints ±
± Format settings, Matrix : Default ±
± Codec ID : DX50 ±
± Codec ID/Hint : DivX 5 ±
± Duration : 2h 13mn ±
± Bit rate : 1 075 Kbps ±
± Width : 672 pixels ±
± Height : 288 pixels ±
± Display aspect ratio : 2.35 ±
± Frame rate : 25.000 fps ±
± Resolution : 24 bits ±
± Colorimetry : 4:2:0 ±
± Scan type : Progressive ±
± Bits/(Pixel*Frame) : 0.222 ±
± Stream size : 1.00 GiB (73%) ±
± Writing library : DivX 2816 ±
± ±
± Audio ±
± Format : AC-3 ±
± Format/Info : Audio Coding 3 ±
± Codec ID : 2000 ±
± Duration : 2h 13mn ±
± Bit rate mode : Constant ±
± Bit rate : 384 Kbps ±
± Channel(s) : 6 channels ±
± Channel positions : Front: L C R, Surround: L R, LFE ±
± Sampling rate : 48.0 KHz ±
± Stream size : 367 MiB (26%) ±
± Alignment : Split accross interleaves ±
± Interleave, duration : 80 ms (2.00 video frames) ±
± Interleave, preload duration : 500 ms ±
± Language : English ±
± Subtitles : English ±
± ±
± IMDb Rating : 7.1/10 ±
± IMDb URL : http://www.imdb.com/title/tt0120660/ ±
± ±
±°°°°°°°°°°°°°°°°°°°°°°°°°°°°°°°°°°°°°°°°°°°°°°°°°°°°°°°°°°°°°°°°°°°°°°°°°°°°°°±
± ±
± Robert Clayton Dean is a successful Washington D.C. Attorney who - without ±
± his knowledge - is given a video that ties a top official of the National ±
± Security Agency to a political murder! Instantly, every aspect of Dean's ±
± once-normal life is targeted by a lethal team of skilled NSA surveillance ±
± operatives, who wage a relentless, ultrahigh-tech campaign to discredit him ±
± and retrieve the incriminating evidence! ±
± ±
± ±
± ±
± ±
±°°°°°°°°°°°°°°°°°°°°°°°°°°°°°°°°°°°°°°°°°°°°°°°°°°°°°°°°°°°°°°°°°°°°°°°°°°°°°°±
± ±
± CAST: ±
± ±
± Will Smith.................Robert Clayton Dean ±
± Gene Hackman...............Brill ±
± John Voight................Reynolds ±
± Lisa Bonet.................Rachel Banks ±
± Regina King................Carla Dean ±
± Loren Dean.................Hicks ±
± Barry Pepper...............Pratt ±
± ±
±°°°°°°°°°°°°°°°°°°°°°°°°°°°°°°°°°°°°°°°°°°°°°°°°°°°°°°°°°°°°°°°°°°°°°°°°°°°°°°±
± ±
± Please remember to seed ±
± ±
± Seeding is good for the soul ±
± ±
±±±±±±±±±±±±±±±±±±±±±±±±±±±±±±±±±±±±±±±±±±±±±±±±±±±±±±±±±±±±±±±±±±±±±±±±±±±±±±±±

related torrents

Torrent name

health leech seeds Size
 

comments (0)

Main Menu