Action

El Gezira The Island [Arabic] [Movie] DVDRip XviD [Sifara com]

  • Download 5x Faster
  • Download torrent
  • Direct Download
  • Rate this torrent +  |  -
El Gezira The Island [Arabic] [Movie] DVDRip XviD [Sifara com]

Anonymous and Direct Download 300GB+ free


Torrent info

Name:El Gezira The Island [Arabic] [Movie] DVDRip XviD [Sifara com]

Total Size: 700.01 MB

Magnet: Magnet Link

Seeds: 0

Leechers: 0

Stream: Watch Online @ Movie4u

Last Updated: 2016-12-01 19:36:50 (Update Now)

Torrent added: 2009-08-22 00:45:24




Torrent Files List


El.Gezira.The.Island.2007.DVDRip.Xvid.[Sifara.com].avi (Size: 700.01 MB) (Files: 1)

 El.Gezira.The.Island.2007.DVDRip.Xvid.[Sifara.com].avi

700.01 MB
 

tracker

leech seeds
 

Torrent description

'El Gezira' is a film about a community of Upper Egypt residents living in El Gezira (the Island). They have their own set of rules, ethics and traditions. But they also plant drugs and buy arms from Sudan. The officer in charge of the region turns a blind eye to these happenings, and in the beginning, the government takes no heed of the Island. At the start of the film, we witness the death of the old 'Kabir el Gezira' (the island's ruler), leaving the land to his son Mansour (Ahmed el-Sakka). The first half follows Mansour as he takes control of his land and must deal with a band of other drug lords who are greedy to take control of the island. The second half of the film deals with the political conflict. It follows the government's side of things (which finally decides to take action) at the same time as Mansour's side, as the two react to each other's threats and the conflict escalates. 'El Gezira' is a multi-genre picture. It is a thematic film on Egyptian politics, but also a drama, action, and thriller/suspense film. Written by Andrew Sidhom <pre class="nfo">General ==================================================================
Complete name : El.Gezira.The.Island.2007.DVDRip.Xvid.[Sifara.com].avi
Format : AVI
Format/Info : Audio Video Interleave
File size : 700 MiB
Duration : 2h 23mn
Overall bit rate : 682 Kbps
Writing application : VirtualDubMod 1.5.4.1 (build 2178/release)
Writing library : VirtualDubMod build 2178/release

Video ==================================================================
Format : MPEG-4 Visual
Format profile : [email protected]
Format settings, BVOP : Yes
Format settings, QPel : No
Format settings, GMC : No warppoints
Format settings, Matrix : Custom
Codec ID : XVID
Codec ID/Hint : XviD
Duration : 2h 23mn
Bit rate : 584 Kbps
Width : 480 pixels
Height : 272 pixels
Display aspect ratio : 16/9
Frame rate : 25.000 fps
Resolution : 24 bits
Colorimetry : 4:2:0
Scan type : Progressive
Bits/(Pixel*Frame) : 0.179
Stream size : 599 MiB (86%)
Writing library : XviD 1.0.3 (UTC 2004-12-20)

Audio ==================================================================
Format : MPEG Audio
Format version : Version 1
Format profile : Layer 3
Codec ID : 55
Codec ID/Hint : MP3
Duration : 2h 23mn
Bit rate mode : Variable
Bit rate : 85.6 Kbps
Minimum bit rate : 128 Kbps
Channel(s) : 2 channels
Sampling rate : 48.0 KHz
Resolution : 16 bits
Stream size : 87.8 MiB (13%)
Alignment : Aligned on interleaves
Interleave, duration : 24 ms (0.60 video frame)
Interleave, preload duration : 215 ms
Writing library : LAME3.97
Encoding settings : ABR
Language : Arabic
Ripped By : Beznas for Sifara.com </pre>

related torrents

Torrent name

health leech seeds Size
 


comments (0)

Main Menu