Action

Dragonlance Dragons Of Autumn Twilight VOSTFR DVDRIP XVID FLF

  • Download 5x Faster
  • Download torrent
  • Direct Download
  • Rate this torrent +  |  -
Dragonlance Dragons Of Autumn Twilight VOSTFR DVDRIP XVID FLF

Free and Direct Download with Usenet.nl 300GB+ free


Torrent info

Name:Dragonlance Dragons Of Autumn Twilight VOSTFR DVDRIP XVID FLF

Total Size: 699.13 MB

Magnet: Magnet Link

Seeds: 0

Leechers: 0

Stream: Watch Online @ Movie4u

Last Updated: 2016-12-02 20:08:46 (Update Now)

Torrent added: 2009-08-22 00:36:10





Torrent Files List


Dragonlance.Dragons.Of.Autumn.Twilight.VOSTFR.DVDRIP.XVID-FLF_Nouveau.avi (Size: 699.13 MB) (Files: 3)

 Dragonlance.Dragons.Of.Autumn.Twilight.VOSTFR.DVDRIP.XVID-FLF_Nouveau.avi

699.06 MB

 Dragonlance.Dragons.Of.Autumn.Twilight.VOSTFR.DVDRIP.XVID-FLF.nfo

13.11 KB

 Dragonlance.Dragons.Of.Autumn.Twilight.VOSTFR.DVDRIP.XVID-FLF.jpg

50.63 KB
 

tracker

leech seeds
 

Torrent description

Dragonlance Language : ENG

2009 1h 31mn Subtitles : FR

ANIMATION Release Date : 08/03/2009




http://www.imdb.com/title/tt0825245/

***************************************************************************************

General
Complete name : Dragonlance.Dragons.Of.Autumn.Twilight.VOSTFR.DVDRIP.XVID-FLF
Format : AVI
Format/Info : Audio Video Interleave
File size : 699 MiB
Duration : 1h 31mn
Overall bit rate : 1 073 Kbps

Video
Format : MPEG-4 Visual
Format profile : Streaming [email protected]
Format settings, BVOP : Yes
Format settings, QPel : No
Format settings, GMC : No warppoints
Format settings, Matrix : Default
Muxing mode : Packed bitstream
Codec ID : XVID
Codec ID/Hint : XviD
Duration : 1h 31mn
Bit rate : 913 Kbps
Width : 624 pixels
Height : 352 pixels
Display aspect ratio : 16/9
Frame rate : 23.976 fps
Resolution : 24 bits
Colorimetry : 4:2:0
Scan type : Progressive
Bits/(Pixel*Frame) : 0.173
Stream size : 595 MiB (85%)
Writing library : XviD 1.2.0.dev47 (UTC 2006-11-01)

Audio
Format : MPEG Audio
Format version : Version 1
Format profile : Layer 3
Codec ID : 55
Codec ID/Hint : MP3
Duration : 1h 31mn
Bit rate mode : Variable
Bit rate : 147 Kbps
Minimum bit rate : 160 Kbps
Channel(s) : 2 channels
Sampling rate : 48.0 KHz
Resolution : 16 bits
Stream size : 95.6 MiB (14%)
Alignment : Aligned on interleaves
Interleave, duration : 24 ms (0.58 video frame)
Interleave, preload duration : 125 ms
Writing library : LAME3.97
Encoding settings : ABR
Language : English

**************************************************************************************
USE VLC HARDWARE FOR LOOKING THIS OPTION > PARAMETERS > SUBTITLES

related torrents

Torrent name

health leech seeds Size
 

comments (0)

Main Menu