Action

Downfall[Der Untergang]2004 DVDRip XviD ac3 [DXO] Multiple Subs Hitlers Death

  • Download 5x Faster
  • Download torrent
  • Direct Download
  • Rate this torrent +  |  -

Torrent info

Name:Downfall[Der Untergang]2004 DVDRip XviD ac3 [DXO] Multiple Subs Hitlers Death

Total Size: 1.37 GB

Magnet: Magnet Link

Seeds: 0

Leechers: 0

Stream: Watch Online @ Movie4u

Last Updated: 2017-03-01 00:46:31 (Update Now)

Torrent added: 2009-08-22 00:32:41



VPN For Torrents

Torrent Files List


Torrent downloaded from Demonoid.com.txt (Size: 1.37 GB) (Files: 10)

 Torrent downloaded from Demonoid.com.txt

0.05 KB

 Norwegian.Danish.Swedish.Finnish.Subtitles.rar

3.97 MB

 Der.Untergang.2004.DVDRip.XviD.ac3-DXO.spanish.srt

91.03 KB

 Der.Untergang.2004.DVDRip.XviD.ac3-DXO.polish.srt

91.26 KB

 Der.Untergang.2004.DVDRip.XviD.ac3-DXO.hebrew.srt

77.38 KB

 Der.Untergang.2004.DVDRip.XviD.ac3-DXO.greek.srt

102.03 KB

 Der.Untergang.2004.DVDRip.XviD.ac3-DXO.english.srt

98.29 KB

 Der.Untergang.2004.DVDRip.XviD.ac3-DXO.dutch.srt

90.93 KB

 Der.Untergang.2004.DVDRip.XviD.ac3-DXO.czech.srt

93.27 KB

 Der.Untergang.2004.DVDRip.XviD.ac3-DXO.avi

1.36 GB
 

tracker

leech seeds
 

Torrent description

Search for DXO for more of my uploads

Language: German / Russian
Subtitles: English, Spanish, Czech, Dutch, Greek, Hebrew, Polish, Norwegian, Danish, Swedish, Finnish

http://www.imdb.com/title/tt0363163/
User Rating: 8.4/10 63,311 votes
Director: Oliver Hirschbiegel
Writers: Joachim Fest (book) Traudl Junge (book) ...
Contact: View company contact information for Downfall on IMDbPro.
Release Date: 16 September 2004 (Germany)
Genre: Biography | Drama | History | War
Tagline: April 1945, a nation awaits its...
Plot: Traudl Junge (Lara), the final secretary for Adolf Hitler (Ganz), tells of the Nazi dictator's final days in his Berlin bunker at the end of WWII.
Plot Keywords: Hitler | Bunker | Adolf Hitler | Secretary | Russian
Awards: Nominated for Oscar. Another 15 wins & 13 nominations

Bruno Ganz ... Adolf Hitler
Alexandra Maria Lara ... Traudl Junge
Corinna Harfouch ... Magda Goebbels
Ulrich Matthes ... Joseph Goebbels
Juliane Köhler ... Eva Braun
Heino Ferch ... Albert Speer
Christian Berkel ... Prof. Dr. Ernst-Günter Schenck
Matthias Habich ... Prof. Dr. Werner Haase
Thomas Kretschmann ... SS-Gruppenführer Hermann Fegelein
Michael Mendl ... General der Artillerie Helmuth Weidling
André Hennicke ... SS-Brigadeführer Wilhelm Mohnke
Ulrich Noethen ... Reichsführer SS Heinrich Himmler
Birgit Minichmayr ... Gerda Christian
Rolf Kanies ... General der Infanterie Hans Krebs
Justus von Dohnanyi ... General der Infanterie Wilhelm Burgdorf


Duration: 02:29:11.44, start: 0.000000, bitrate: 1306 kb/s
Stream #0.0: Video: mpeg4, yuv420p, 576x320 [PAR 1:1 DAR 9:5], 25.00 tb(r)
Stream #0.1: Audio: ac3, 48000 Hz, stereo, s16, 192 kb/s

related torrents

Torrent name

health leech seeds Size
 


comments (0)

Main Menu