Action

Doom 2005 dvd5 720p hddvd x264 reveille

  • Download 5x Faster
  • Download torrent
  • Direct Download
  • Rate this torrent +  |  -
Doom 2005 dvd5 720p hddvd x264 reveille

Free and Direct Download with Usenet.nl 300GB+ free


Torrent info

Name:Doom 2005 dvd5 720p hddvd x264 reveille

Total Size: 4.37 GB

Magnet: Magnet Link

Seeds: 0

Leechers: 0

Stream: Watch Online @ Movie4u

Last Updated: 2010-09-22 07:55:53 (Update Now)

Torrent added: 2009-08-22 00:28:31





Torrent Files List


doom.2005.dvd5.720p.hddvd.x264-reveille.romanian.srt (Size: 4.37 GB) (Files: 6)

 doom.2005.dvd5.720p.hddvd.x264-reveille.romanian.srt

64.56 KB

 doom.2005.dvd5.720p.hddvd.x264-reveille.nfo

2.42 KB

 doom.2005.dvd5.720p.hddvd.x264-reveille.mkv

4.37 GB

 doom.2005.dvd5.720p.hddvd.x264-reveille.english.srt

74.57 KB

 doom.2005.dvd5.720p.hddvd.x264-reveille.danish.srt

70.81 KB

 doom.2005.dvd5.720p.hddvd.x264-reveille.bulgarian.srt

61.17 KB
 

Announce URL: http://hdme.eu/announce.php?passkey=6b196b7e752e3786843417b4f5d37233

Torrent description


General Info:

Plot: Space Marines are sent to investigate strange events at a research facility on a distant planet but find themselves at the mercy of genetically enhanced killing machines.

http://www.imdb.com/title/tt0419706/

IMDB Rating: 5.2/10 33,769 votes


Technical Info:

General
Complete name : doom.2005.dvd5.720p.hddvd.x264-reveille.mkv
Format : Matroska
File size : 4.37 GiB
Duration : 1h 52mn
Overall bit rate : 5 557 Kbps
Encoded date : UTC 2007-03-22 18:59:26
Writing application : mkvmerge v2.0.0 ('After The Rain Has Fallen') built on Jan 13 2007 19:58:56
Writing library : libebml v0.7.7 + libmatroska v0.8.0

Video
ID : 1
Format : AVC
Format/Info : Advanced Video Codec
Format profile : [email protected]
Format settings, CABAC : Yes
Format settings, ReFrames : 8 frames
Muxing mode : Container [email protected]
Codec ID : V_MPEG4/ISO/AVC
Duration : 1h 52mn
Bit rate : 4 807 Kbps
Nominal bit rate : 4 914 Kbps
Width : 1 280 pixels
Height : 544 pixels
Display aspect ratio : 2.35
Frame rate : 23.976 fps
Resolution : 24 bits
Colorimetry : 4:2:0
Scan type : Progressive
Bits/(Pixel*Frame) : 0.288
Stream size : 3.78 GiB (86%)
Writing library : x264 core 54 svn-614
Language : English

Audio
ID : 2
Format : AC-3
Format/Info : Audio Coding 3
Codec ID : A_AC3
Duration : 1h 52mn
Bit rate mode : Constant
Bit rate : 640 Kbps
Channel(s) : 6 channels
Channel positions : Front: L C R, Surround: L R, LFE
Sampling rate : 48.0 KHz
Stream size : 516 MiB (12%)

related torrents

Torrent name

health leech seeds Size
 

comments (0)

Main Menu