Action

Domino TR EN AC3 DvDRip XviD TLine

  • Download 5x Faster
  • Download torrent
  • Direct Download
  • Rate this torrent +  |  -
Domino TR EN AC3 DvDRip XviD TLine

Anonymous and free Direct Download 300GB+


Torrent info

Name:Domino TR EN AC3 DvDRip XviD TLine

Total Size: 1.37 GB

Magnet: Magnet Link

Seeds: 0

Leechers: 0

Stream: Watch Online @ Movie4u

Last Updated: 2010-08-11 14:59:27 (Update Now)

Torrent added: 2009-08-22 00:27:05



VPN For Torrents

Torrent Files List


domino.cd2.txt (Size: 1.37 GB) (Files: 102)

 domino.cd2.txt

2.80 KB

 domino.cd1.txt

2.71 KB

 Domino.TR-EN AC3.DvDRip.XviD-TLine.cd2

  TLine-da.sfv

3.59 KB

  TLine-da.rar

14.31 MB

  TLine-da.r47

13.33 MB

  TLine-da.r46

14.31 MB

  TLine-da.r45

14.31 MB

  TLine-da.r44

14.31 MB

  TLine-da.r43

14.31 MB

  TLine-da.r42

14.31 MB

  TLine-da.r41

14.31 MB

  TLine-da.r40

14.31 MB

  TLine-da.r39

14.31 MB

  TLine-da.r38

14.31 MB

  TLine-da.r37

14.31 MB

  TLine-da.r36

14.31 MB

  TLine-da.r35

14.31 MB

  TLine-da.r34

14.31 MB

  TLine-da.r33

14.31 MB

  TLine-da.r32

14.31 MB

  TLine-da.r31

14.31 MB

  TLine-da.r30

14.31 MB

  TLine-da.r29

14.31 MB

  TLine-da.r28

14.31 MB

  TLine-da.r27

14.31 MB

  TLine-da.r26

14.31 MB

  TLine-da.r25

14.31 MB

  TLine-da.r24

14.31 MB

  TLine-da.r23

14.31 MB

  TLine-da.r22

14.31 MB

  TLine-da.r21

14.31 MB

  TLine-da.r20

14.31 MB

  TLine-da.r19

14.31 MB

  TLine-da.r18

14.31 MB

  TLine-da.r17

14.31 MB

  TLine-da.r16

14.31 MB

  TLine-da.r15

14.31 MB

  TLine-da.r14

14.31 MB

  TLine-da.r13

14.31 MB

  TLine-da.r12

14.31 MB

  TLine-da.r11

14.31 MB

  TLine-da.r10

14.31 MB

  TLine-da.r09

14.31 MB

  TLine-da.r08

14.31 MB

  TLine-da.r07

14.31 MB

  TLine-da.r06

14.31 MB

  TLine-da.r05

14.31 MB

  TLine-da.r04

14.31 MB

  TLine-da.r03

14.31 MB

  TLine-da.r02

14.31 MB

  TLine-da.r01

14.31 MB

  TLine-da.r00

14.31 MB

 Domino.TR-EN AC3.DvDRip.XviD-TLine.cd1

  TLine-da.sfv

3.59 KB

  TLine-da.rar

14.31 MB

  TLine-da.r47

13.21 MB

  TLine-da.r46

14.31 MB

  TLine-da.r45

14.31 MB

  TLine-da.r44

14.31 MB

  TLine-da.r43

14.31 MB

  TLine-da.r42

14.31 MB

  TLine-da.r41

14.31 MB

  TLine-da.r40

14.31 MB

  TLine-da.r39

14.31 MB

  TLine-da.r38

14.31 MB

  TLine-da.r37

14.31 MB

  TLine-da.r36

14.31 MB

  TLine-da.r35

14.31 MB

  TLine-da.r34

14.31 MB

  TLine-da.r33

14.31 MB

  TLine-da.r32

14.31 MB

  TLine-da.r31

14.31 MB

  TLine-da.r30

14.31 MB

  TLine-da.r29

14.31 MB

  TLine-da.r28

14.31 MB

  TLine-da.r27

14.31 MB

  TLine-da.r26

14.31 MB

  TLine-da.r25

14.31 MB

  TLine-da.r24

14.31 MB

  TLine-da.r23

14.31 MB

  TLine-da.r22

14.31 MB

  TLine-da.r21

14.31 MB

  TLine-da.r20

14.31 MB

  TLine-da.r19

14.31 MB

  TLine-da.r18

14.31 MB

  TLine-da.r17

14.31 MB

  TLine-da.r16

14.31 MB

  TLine-da.r15

14.31 MB

  TLine-da.r14

14.31 MB

  TLine-da.r13

14.31 MB

  TLine-da.r12

14.31 MB

  TLine-da.r11

14.31 MB

  TLine-da.r10

14.31 MB

  TLine-da.r09

14.31 MB

  TLine-da.r08

14.31 MB

  TLine-da.r07

14.31 MB

  TLine-da.r06

14.31 MB

  TLine-da.r05

14.31 MB

  TLine-da.r04

14.31 MB

  TLine-da.r03

14.31 MB

  TLine-da.r02

14.31 MB

  TLine-da.r01

14.31 MB

  TLine-da.r00

14.31 MB
 

Announce URL: http://a.tracker.thepiratebay.org:80/announce

Torrent description

http://www.imdb.com/title/tt0421054/

TLine



Ripper : 17mayis
Format : AVI
Format/Info : Audio Video Interleave
File size : 700 MiB
Duration : 1h 0mn
Overall bit rate : 1623 Kbps
Writing application : VirtualDubMod 1.5.4.1 (build 2178/release)
Writing library : VirtualDubMod build 2178/release
IAS1 : Turkish / Turkish
IAS2 : English / English

Video
Format : MPEG-4 Visual
Format profile : Streaming [email protected]
Format settings, BVOP : Yes
Format settings, QPel : No
Format settings, GMC : No warppoints
Format settings, Matrix : Custom
Codec ID : XVID
Codec ID/Hint : XviD
Duration : 1h 0mn
Bit rate : 718 Kbps
Width : 720 pixels
Height : 304 pixels
Display aspect ratio : 2.35
Frame rate : 25.000 fps
Resolution : 8 bits
Colorimetry : 4:2:0
Scan type : Progressive
Bits/(Pixel*Frame) : 0.131
Stream size : 310 MiB (44%)
Writing library : XviD 1.2.0.dev47 (UTC 2006-11-01)

Audio #1
Format : AC-3
Format/Info : Audio Coding 3
Codec ID : 2000
Duration : 1h 0mn
Bit rate mode : Constant
Bit rate : 448 Kbps
Channel(s) : 6 channels
Channel positions : Front: L C R, Rear: L R, LFE
Sampling rate : 48.0 KHz
Stream size : 193 MiB (28%)
Alignment : Aligned on interleaves
Interleave, duration : 96 ms (2.40 video frames)
Interleave, preload duration : 96 ms

Audio #2
Format : AC-3
Format/Info : Audio Coding 3
Codec ID : 2000
Duration : 1h 0mn
Bit rate mode : Constant
Bit rate : 448 Kbps
Channel(s) : 6 channels
Channel positions : Front: L C R, Rear: L R, LFE
Sampling rate : 48.0 KHz
Stream size : 193 MiB (28%)
Alignment : Aligned on interleaves
Interleave, duration : 96 ms (2.40 video frames)
Interleave, preload duration : 96 ms

related torrents

Torrent name

health leech seeds Size
 


comments (0)

Main Menu