Action

Domino DVDRip 2005 [H 264 MP4 AAC] Mindbreaker

  • Download 5x Faster
  • Download torrent
  • Direct Download
  • Rate this torrent +  |  -
Domino DVDRip 2005 [H 264 MP4 AAC] Mindbreaker

Free and Direct Download with Usenet 300GB+ free


Torrent info

Name:Domino DVDRip 2005 [H 264 MP4 AAC] Mindbreaker

Total Size: 1.85 GB

Magnet: Magnet Link

Seeds: 0

Leechers: 0

Stream: Watch Online @ Movie4u

Last Updated: 2012-01-09 15:24:38 (Update Now)

Torrent added: 2009-08-22 00:26:48




Torrent Files List


Subtitles (Size: 1.85 GB) (Files: 8)

 Subtitles

  Domino DVDRip 2005 [H.264-MP4-AAC] - Mindbreaker - Dutch.srt

163.79 KB

 Screenshots

  003 - Domino.png

676.13 KB

  002 - Domino.png

369.17 KB

  001 - Domino.png

753.75 KB

 Domino DVDRip 2005 [H.264-MP4-AAC] - Mindbreaker.txt

1.53 KB

 Domino DVDRip 2005 [H.264-MP4-AAC] - Mindbreaker.mp4

1.85 GB

 Covers

  Domino - Front.jpg

567.35 KB

  Domino - CD.jpg

277.41 KB
 

Announce URL:

Torrent description

Tagline: I Am a Bounty Hunter
Plot: A recounting of Domino Harvey's life story. The daughter of actor Laurence Harvey turned away from her career as a Ford model to become a bounty hunter.
Total Size : 1.85 GB

General
Complete name : Domino DVDRip 2005 [H.264-MP4-AAC] - Mindbreaker.mp4
Format : H.264/AAC/MP4 - Anamophic
Source : DVD (retail)
File size : 1.85 GiB
Duration : 2h 2mn
Overall bit rate : 2 163 Kbps


Video
ID : 1
Format : AVC
Format/Info : Advanced Video Codec
Format profile : [email protected]
Duration : 2h 2mn
Bit rate : 2 000 Kbps
Width : 720 pixels
Height : 426 pixels
Display aspect ratio : 2.403
Frame rate : 25.000 fps
Bits/(Pixel*Frame) : 0.261
Stream size : 1.71 GiB (92%)
Writing library : x264 core 65

Audio
ID : 2
Format : AAC
Format/Info : Advanced Audio Codec
Format profile : LC
Duration : 2h 2mn
Bit rate : 160 Kbps
Channel(s) : 2 channels
Sampling rate : 48.0 KHz
Stream size : 140 MiB (7%)
Language : English

Subtitle
Format : SubRip
Language : Dutch
Source : DVD
Comment : UniCode

related torrents

Torrent name

health leech seeds Size
 

comments (0)

Main Menu