Action

Dog Eat Dog 2008 DVDRIP XviD ZEKTORM

  • Download 5x Faster
  • Download torrent
  • Direct Download
  • Rate this torrent +  |  -
Dog Eat Dog 2008 DVDRIP XviD ZEKTORM

Free and Direct Download with Usenet 300GB+ free


Torrent info

Name:Dog Eat Dog 2008 DVDRIP XviD ZEKTORM

Total Size: 708.87 MB

Magnet: Magnet Link

Seeds: 14

Leechers: 5

Stream: Watch Online @ Movie4u

Last Updated: 0000-00-00 00:00:00 (Update Now)

Torrent added: 2009-08-22 00:25:58




Torrent Files List


Torrent downloaded from Demonoid.com.txt (Size: 708.87 MB) (Files: 5)

 Torrent downloaded from Demonoid.com.txt

0.05 KB

 Subs

  DED-ZEKTORM.sub

7.61 MB

  DED-ZEKTORM.idx

104.96 KB

 READ.hlp

11.58 KB

 DED-ZEKTORM.avi

701.14 MB
 

Announce URL: http://inferno.demonoid.com:3415/announce

Torrent description

Title : Perro come perro
Also Known As : Dog Eat Dog
Year : 2008
Genre : Thriller
iMDB URL : http://www.imdb.com/title/tt1157631/
Awards : 8 wins & 2 nominations

Complete name : DED-ZEKTORM.avi
Format : AVI
File size : 701 MiB
Duration : 1h 42mn
Overall bit rate : 957 Kbps
Subtitles : English, Spanish (Format: VobSub)
Source : DVD NTSC

Video
Format : MPEG-4 Visual
Format profile : Streaming [email protected]
Codec ID : XVID
Codec ID/Hint : XviD
Duration : 1h 42mn
Bit rate : 840 Kbps
Width : 720 pixels
Height : 400 pixels
Display aspect ratio : 16/9
Frame rate : 23.976 fps
Resolution : 24 bits
Colorimetry : 4:2:0
Scan type : Progressive
Bits/(Pixel*Frame) : 0.122
Stream size : 616 MiB (88%)
Writing library : XviD

Audio
Language : Spanish
Format : MPEG Audio
Format version : Version 1
Format profile : Layer 3
Codec ID : 55
Codec ID/Hint : MP3
Duration : 1h 42mn
Bit rate mode : Variable
Bit rate : 104 Kbps
Minimum bit rate : 128 Kbps
Channel(s) : 2 channels
Sampling rate : 48.0 KHz
Resolution : 16 bits
Stream size : 76.3 MiB (11%)
Writing library : LAME3.98r
Encoding settings : ABR

related torrents

Torrent name

health leech seeds Size
 

comments (0)

Main Menu