Action

Delhi 6 (2009) PreDVDRip XviD AC3 BY

  • Download 5x Faster
  • Download torrent
  • Direct Download
  • Rate this torrent +  |  -
Delhi 6 (2009) PreDVDRip XviD AC3 BY

Free and Direct Download with Usenet.nl 300GB+ free


Torrent info

Name:Delhi 6 (2009) PreDVDRip XviD AC3 BY

Total Size: 695.40 MB

Magnet: Magnet Link

Seeds: 2

Leechers: 0

Stream: Watch Online @ Movie4u

Last Updated: 2010-11-07 20:41:17 (Update Now)

Torrent added: 2009-08-22 00:09:55





Torrent Files List


Delhi 6 2009 1CD PreDVDRip XviD AC3 AVI M2Tv.avi (Size: 695.40 MB) (Files: 1)

 Delhi 6 2009 1CD PreDVDRip XviD AC3 AVI M2Tv.avi

695.40 MB
 

Announce URL: http://www.bwtorrents.com:6969/Perseus.asmx/announce?passkey=7015dd274151fc722d3010c1f3d98689

Torrent description

Delhi 6 (2009) PreDVDRip XviD AC3 BY- www.Yolike.com

Click Here For ScreenShots

KeepWatching Yolike.com for more Updates

Download All Bollywood Movies and Hot Videos only on Yolike.com

Video
Format : MPEG-4 Visual
Format profile : Streaming [email protected]
Format settings, BVOP : Yes
Format settings, QPel : No
Format settings, GMC : No warppoints
Format settings, Matrix : Default
Codec ID : XVID
Codec ID/Hint : XviD
Duration : 2h 18mn
Bit rate : 570 Kbps
Width : 640 pixels
Height : 288 pixels
Display aspect ratio : 2.222
Frame rate : 23.976 fps
Resolution : 24 bits
Colorimetry : 4:2:0
Scan type : Progressive
Bits/(Pixel*Frame) : 0.129
Stream size : 564 MiB (81%)
Writing library : XviD 50

Audio
Format : AC-3
Format/Info : Audio Coding 3
Codec ID : 2000
Bit rate mode : Constant
Bit rate : 128 Kbps
Channel(s) : 6 channels
Channel positions : Front: L C R, Rear: L R, LFE
Sampling rate : 48.0 KHz
Stream size : 126 MiB (18%)
Alignment : Aligned on interleaves
Interleave, duration : 64 ms (1.53 video frames)
Interleave, preload duration : 192 ms
Title : VTS_02_1-audio

related torrents

Torrent name

health leech seeds Size
 

comments (0)

Main Menu