Action

DAYS OF THUNDER[1990] AC3 5 1 DvDrip Maka6358 avi

  • Download 5x Faster
  • Download torrent
  • Direct Download
  • Rate this torrent +  |  -
DAYS OF THUNDER[1990] AC3 5 1 DvDrip Maka6358 avi

Free and Direct Download with Usenet 300GB+ free


Torrent info

Name:DAYS OF THUNDER[1990] AC3 5 1 DvDrip Maka6358 avi

Total Size: 1.37 GB

Magnet: Magnet Link

Seeds: 7

Leechers: 4

Stream: Watch Online @ Movie4u

Last Updated: 0000-00-00 00:00:00 (Update Now)

Torrent added: 2009-08-21 23:59:34




Torrent Files List


Torrent_downloaded_from_Demonoid.com.txt (Size: 1.37 GB) (Files: 3)

 Torrent_downloaded_from_Demonoid.com.txt

0.05 KB

 DAYS_OF_THUNDER[1990]-AC3-5.1-DvDrip-Maka6358.avi

1.37 GB

 [www.DarksideRG.com]Hellraiser.jpg

126.92 KB
 

Announce URL: http://inferno.demonoid.com:3410/announce

Torrent description

Cole Trickle enters the high-pressure world of Nascar racing. He's a hot driver with a hot temper, and this attitude gets him into trouble not only with other drivers, but members of his own team as well.

http://www.imdb.com/title/tt0099371/

General
Complete name : DAYS_OF_THUNDER[1990]-AC3-5.1-DvDrip-Maka6358.avi
Format : AVI
Format/Info : Audio Video Interleave
File size : 1.37 GiB
Duration : 1h 42mn
Overall bit rate : 1 904 Kbps
Writing application : VirtualDubMod 1.5.4.1 (build 2178/release)
Writing library : VirtualDubMod build 2178/release

Video
Format : MPEG-4 Visual
Format profile : Streaming [email protected]
Format settings, BVOP : Yes
Format settings, QPel : No
Format settings, GMC : No warppoints
Format settings, Matrix : Custom
Codec ID : XVID
Codec ID/Hint : XviD
Duration : 1h 42mn
Bit rate : 1 513 Kbps
Width : 704 pixels
Height : 304 pixels
Display aspect ratio : 2.35
Frame rate : 25.000 fps
Resolution : 24 bits
Colorimetry : 4:2:0
Scan type : Progressive
Bits/(Pixel*Frame) : 0.283
Stream size : 1.09 GiB (79%)
Writing library : XviD 1.2.0.dev47 (UTC 2006-11-01)

Audio
Format : AC-3
Format/Info : Audio Coding 3
Codec ID : 2000
Duration : 1h 42mn
Bit rate mode : Constant
Bit rate : 384 Kbps
Channel(s) : 6 channels
Channel positions : Front: L C R, Surround: L R, LFE
Sampling rate : 48.0 KHz
Video delay : 1s 200ms
Stream size : 283 MiB (20%)
Alignment : Split accross interleaves
Interleave, duration : 96 ms (2.40 video frames)
Interleave, preload duration : 96 ms
Language : English

Info hash : 44AD77F580959D5261A4432C8774A2D47B25B21F

related torrents

Torrent name

health leech seeds Size
 

comments (0)

Main Menu