Action

Das Netz 2 0 German 2006 DVDRiP XviD

  • Download 5x Faster
  • Download torrent
  • Direct Download
  • Rate this torrent +  |  -
Das Netz 2 0 German 2006 DVDRiP XviD

Anonymous and free Direct Download 300GB+


Torrent info

Name:Das Netz 2 0 German 2006 DVDRiP XviD

Total Size: 700.00 MB

Magnet: Magnet Link

Seeds: 0

Leechers: 0

Stream: Watch Online @ Movie4u

Last Updated: 2010-09-22 21:01:47 (Update Now)

Torrent added: 2009-08-21 23:57:29



VPN For Torrents

Torrent Files List


nfo.nfo (Size: 700.00 MB) (Files: 2)

 nfo.nfo

2.00 KB

 Das.Netz.2.0.German.2006.DVDRiP.XviD.avi

700.00 MB
 

Announce URL: http://darkroom.webhop.org/announce.php

Torrent description

General
Vollständiger Name : Das.Netz.2.0.German.2006.DVDRiP.XviD.avi
Format : AVI
Format/Info : Audio Video Interleave
Dateigre : 700 MiB
Duration : 1h 28min
Gesamte Bitrate : 1102 Kbps
Verwendetes Programm : VirtualDubMod 1.5.4.1 (build 2178/release)
verwendete Encoder-Bibliothek : VirtualDubMod build 2178/release
IAS1 : Deutsch

Video
Format : MPEG-4 Visual
Format profile : Streaming [email protected]
Format settings, BVOP : Yes
Format settings, QPel : No
Format settings, GMC : 0 warppoint
Format settings, Matrix : Custom
Codec ID : XVID
Codec ID/Hint : XviD
Duration : 1h 28min
Bitrate : 973 Kbps
Breite : 576 Pixel
Höhe : 320 Pixel
Bildseitenverhältnis : 16/9
Bildwiederholungsrate : 25.000 FPS
Auflösung : 8 bits
Colorimetry : 4:2:0
Scan type : Progressive
Bits/(Pixel*Frame) : 0.211
Stream size : 618 MiB
verwendete Encoder-Bibliothek : XviD 1.2.0SMP
verwendete Encoder-Bibliothek /D : UTC 2006-01-08

Audio
Format : MPEG Audio
Format version : Version 1 / Layer 3
Codec ID : 55
Codec ID/Hint : MP3
Duration : 1h 28min
Bitraten-Modus : VBR
Bitrate : 128.0 Kbps
Kanäle : 2 Kanäle
Samplingrate : 48.0 KHz
Auflösung : 16 bits
Stream size : 74.0 MiB
verwendete Encoder-Bibliothek : LAME3.97 (beta)







related torrents

Torrent name

health leech seeds Size
 


comments (0)

Main Menu