Action

Dark Town Deutsch 2007 Xvid

  • Download 5x Faster
  • Download torrent
  • Direct Download
  • Rate this torrent +  |  -
Dark Town Deutsch 2007 Xvid

Anonymous and Free Direct Download 300GB+


Torrent info

Name:Dark Town Deutsch 2007 Xvid

Total Size: 699.93 MB

Magnet: Magnet Link

Seeds: 0

Leechers: 0

Stream: Watch Online @ Movie4u

Last Updated: 2010-10-04 05:36:40 (Update Now)

Torrent added: 2009-08-21 23:55:55



VPN For Torrents

Torrent Files List


t-49244-1.jpg (Size: 699.93 MB) (Files: 3)

 t-49244-1.jpg

6.12 KB

 Info.txt

2.88 KB

 Dark Town - Eine Stadt in Angst und Schrecken.avi

699.92 MB
 

Announce URL: http://tbunker.dyndns.dk/announce.php

Torrent description

Dark Town - Eine Stadt in Angst und Schrecken
(Korea 2007)

Release Date: 12.11.2008
Store Date: 13.11.2008
Cinema Date: STV
Genre.: Thriller
Rating: KJ
Runtime..: 108 Minutes




Ein brutaler Serienkiller geht um in einer kleinen koreanischen Gemeinde. Im Monatsabstand wurde jeweils eine Frauenleiche an prominenter Stelle in Kreuzform aufgehngt. Der Polizist Jea-shin tritt mit seinen Ermittlungen auf der Stelle und so kontaktiert er seinen Freund den Autor Kyung-fu der schon seit Wochen ber die Mordserie rescherschiert, um diese als Grundlage fr sein neues Buch zu nehmen. Als die Ermittlungen parallelen zu einem Fall von vor 10 Jahren aufwerfen wird alles noch einmal von vorne aufgerollt und pltzlich scheint nichts mehr so zu sein wie man es gedacht hatte

Format : AVI
Format/Info : Audio Video Interleave
Dateigre : 700 MiB
Duration : 1h 47min
Gesamte Bitrate : 907 Kbps
Verwendetes Programm : VirtualDubMod 1.5.10.2 (build 2540/release)
verwendete Encoder-Bibliothek : VirtualDubMod build 2540/release

Video
Format : MPEG-4 Visual
Format profile : Streaming [email protected]
Format settings, BVOP : Ja
Format settings, QPel : Nein
Format settings, GMC : No warpoints
Format settings, Matrix : Default
Codec ID : XVID
Codec ID/Hint : XviD
Duration : 1h 47min
Bitrate : 762 Kbps
Breite : 576 Pixel
Hhe : 304 Pixel
Bildseitenverhltnis : 1.895
Bildwiederholungsrate : 25.000 FPS
Auflsung : 8 bits
Colorimetry : 4:2:0
Scan type : Progressive
Bits/(Pixel*Frame) : 0.174
Stream size : 588 MiB
verwendete Encoder-Bibliothek : XviD 1.1.2 (UTC 2006-11-01)

Audio
Format : MPEG Audio
Format version : Version 1
Format profile : Layer 3
Codec ID : 55
Codec ID/Hint : MP3
Duration : 1h 47min
Bitraten-Modus : Variable
Bitrate : 132 Kbps
Nominal bit rate : 128 Kbps
Kanle : 2 Kanle
Samplingrate : 48.0 KHz
Auflsung : 16 bits
Stream size : 102 MiB
verwendete Encoder-Bibliothek : LAME3.90.

related torrents

Torrent name

health leech seeds Size
 


comments (0)

Main Menu