Action

Dark Blue (2002) DVDRip (AC 3 Audio)

  • Download 5x Faster
  • Download torrent
  • Direct Download
  • Rate this torrent +  |  -
Dark Blue (2002) DVDRip (AC 3 Audio)

Free and Direct Download with Usenet.nl 300GB+ free


Torrent info

Name:Dark Blue (2002) DVDRip (AC 3 Audio)

Total Size: 1.07 GB

Magnet: Magnet Link

Seeds: 0

Leechers: 0

Stream: Watch Online @ Movie4u

Last Updated: 2012-07-13 09:44:18 (Update Now)

Torrent added: 2009-08-21 23:54:50





Torrent Files List


Dark Blue (2002) - [akhiugo].avi (Size: 1.07 GB) (Files: 1)

 Dark Blue (2002) - [akhiugo].avi

1.07 GB
 

Announce URL:

Torrent description

Set in the Los Angeles Police Department in April 1992, Dark Blue is a dramatic thriller that takes place just days before the acquittal of four white officers in the beating of black motorist Rodney King and the subsequent L.A. riots. In this racially-charged climate,the LAPD's elite Special Investigations Squad (SIS) is assigned a high-profile quadruple homicide. As they work the case, veteran detective Eldon Perry, known for his tough street tactics and fiery temper, tutors SIS rookie Bobby Keough in the grim realities of police intimidation and corruption. Meanwhile, Assistant Chief Holland, the only man in the department willing to stand up to the SIS, threatens to end Perry's brand of singlehanded "justice" on the Los Angeles streets. While navigating through the tumultuous neighborhoods of South Central L.A., Perry and Keough must track down cold-blooded killers and face their own demons, which prove to be more ruthless than the criminals they pursue.


IMDB Rating: 6.6/10 (9,097 Votes)


------------------------------------------------------------------------------

General
Complete name : Dark Blue (2002) - [akhiugo].avi
Format : AVI
Format/Info : Audio Video Interleave
File size : 1.07 GiB
Duration : 1h 53mn
Overall bit rate : 1 359 Kbps
Writing application : VirtualDubMod 1.5.4.1 (build 2178/release)
Writing library : VirtualDubMod build 2178/release

Video
Format : MPEG-4 Visual
Format profile : Streaming [email protected]
Format settings, BVOP : Yes
Format settings, QPel : No
Format settings, GMC : No warppoints
Format settings, Matrix : Custom
Codec ID : XVID
Codec ID/Hint : XviD
Duration : 1h 53mn
Bit rate : 1 128 Kbps
Width : 704 pixels
Height : 304 pixels
Display aspect ratio : 2.35
Frame rate : 25.000 fps
Resolution : 24 bits
Colorimetry : 4:2:0
Scan type : Progressive
Bits/(Pixel*Frame) : 0.211
Stream size : 913 MiB (83%)
Writing library : XviD 1.2.1 (UTC 2008-12-04)

Audio
Format : AC-3
Format/Info : Audio Coding 3
Codec ID : 2000
Duration : 1h 53mn
Bit rate mode : Constant
Bit rate : 224 Kbps
Channel(s) : 2 channels
Channel positions : L R
Sampling rate : 48.0 KHz
Stream size : 181 MiB (16%)
Alignment : Aligned on interleaves
Interleave, duration : 96 ms (2.40 video frames)
Interleave, preload duration : 96 ms

-------------------------------------------------------------------------------

Thumbnailed Screens




Please help your fellow pirates by seeding after download!

related torrents

Torrent name

health leech seeds Size
 

comments (0)

Main Menu