Action

Danny The Dog 2005 HDRip AC3 Xvid D Z0N3 BOZX

  • Download 5x Faster
  • Download torrent
  • Direct Download
  • Rate this torrent +  |  -
Danny The Dog 2005 HDRip AC3 Xvid D Z0N3 BOZX

Anonymous and Free Direct Download


Torrent info

Name:Danny The Dog 2005 HDRip AC3 Xvid D Z0N3 BOZX

Total Size: 2.18 GB

Magnet: Magnet Link

Seeds: 0

Leechers: 0

Stream: Watch Online @ Movie4u

Last Updated: 2015-10-08 02:08:49 (Update Now)

Torrent added: 2009-08-21 23:53:40



VPN For Torrents

Torrent Files List


Danny.The.Dog.2005.HDRip.AC3.Xvid.D-Z0N3.srt (Size: 2.18 GB) (Files: 2)

 Danny.The.Dog.2005.HDRip.AC3.Xvid.D-Z0N3.srt

71.04 KB

 Danny.The.Dog.2005.HDRip.AC3.Xvid.D-Z0N3.avi

2.18 GB
 

tracker

leech seeds
 

Torrent description

Danny.The.Dog.2005.HDRip.AC3.Xvid.D-Z0N3 BOZX

Format : AVI
Format/Info : Audio Video Interleave
Format profile : OpenDML
File size : 2.18 GiB
Duration : 1h 37mn
Overall bit rate : 3 200 Kbps
Writing application : VirtualDubMod 1.5.10.2 (build 2540/release)
Writing library : VirtualDubMod build 2540/release
Video
Format : MPEG-4 Visual
Format profile : Streaming [email protected]
Format settings, BVOP : Yes
Format settings, QPel : No
Format settings, GMC : No warppoints
Format settings, Matrix : Custom
Codec ID : XVID
Codec ID/Hint : XviD
Duration : 1h 37mn
Bit rate : 2 740 Kbps
Width : 720 pixels
Height : 304 pixels
Display aspect ratio : 2.35
Frame rate : 25.000 fps
Resolution : 24 bits
Colorimetry : 4:2:0
Scan type : Progressive
Bits/(Pixel*Frame) : 0.501
Stream size : 1.87 GiB (86%)
Writing library : XviD 1.2.0.dev47 (UTC 2006-11-01)

Audio
Format : AC-3
Format/Info : Audio Coding 3
Codec ID : 2000
Bit rate mode : Constant
Bit rate : 448 Kbps
Channel(s) : 6 channels
Channel positions : Front: L C R, Surround: L R, LFE
Sampling rate : 48.0 KHz
Stream size : 313 MiB (14%)
Alignment : Split accross interleaves
Interleave, duration : 40 ms (1.00 video frame)
Interleave, preload duration : 500 ms

Enjoy :)


pls seed back

related torrents

Torrent name

health leech seeds Size
 


comments (0)

Main Menu