Action

Død Snø (aka Dead Snow) 2009 DVDRip XviD [Eng Rom Subs]

  • Download 5x Faster
  • Download torrent
  • Direct Download
  • Rate this torrent +  |  -
Død Snø (aka Dead Snow) 2009 DVDRip XviD [Eng Rom Subs]

Free and Direct Download with Usenet.nl 300GB+ free


Torrent info

Name:Død Snø (aka Dead Snow) 2009 DVDRip XviD [Eng Rom Subs]

Total Size: 700.65 MB

Magnet: Magnet Link

Seeds: 0

Leechers: 0

Stream: Watch Online @ Movie4u

Last Updated: 2012-04-12 18:53:35 (Update Now)

Torrent added: 2009-08-21 23:51:35





Torrent Files List


Subs (Size: 700.65 MB) (Files: 4)

 Subs

  Dd Sn Romanian.srt

27.85 KB

  Dd Sn English.srt

28.61 KB

 Dd Sn.jpg

106.31 KB

 Dd Sn.avi

700.49 MB
 

Announce URL:

Torrent description

Død snø 2009 (aka Dead Snow)

Genre:
Action | Adventure | Comedy | Horror
User Rating: 7.8/10 609 votes

Plot:
A ski vacation turns horrific for a group of teenagers, as they find themselves confronted by an unimaginable menace: Nazi zombies.

Cast:
Charlotte Frogner ... Hanna
Ørjan Gamst ... Herzog
Stig Frode Henriksen ... Roy
Vegar Hoel ... Martin
Jeppe Laursen ... Erlend
Evy Kasseth Røsten ... Liv
Jenny Skavlan ... Chris
Bjørn Sundquist ... The Wanderer
Ane Dahl Torp ... Sara
Lasse Valdal ... Vegard

Runtime:90 min
Language: Norvegian


Format : AVI
Format/Info : Audio Video Interleave
File size : 700 MiB
Duration : 1h 27mn
Overall bit rate : 1 117 Kbps
Writing application : Nandub v1.0rc2
Writing library : Nandub build 1852/release
Video
Format : MPEG-4 Visual
Format profile : Streaming [email protected]
Format settings, BVOP : Yes
Format settings, QPel : No
Format settings, GMC : No warppoints
Format settings, Matrix : Default
Muxing mode : Packed bitstream
Codec ID : XVID
Codec ID/Hint : XviD
Duration : 1h 27mn
Bit rate : 969 Kbps
Width : 624 pixels
Height : 336 pixels
Display aspect ratio : 1.857
Frame rate : 25.000 fps
Resolution : 24 bits
Colorimetry : 4:2:0
Scan type : Progressive
Bits/(Pixel*Frame) : 0.185
Stream size : 608 MiB (87%)
Writing library : XviD 1.1.2 (UTC 2006-11-01)
Audio
Format : MPEG Audio
Format version : Version 1
Format profile : Layer 3
Codec ID : 55
Codec ID/Hint : MP3
Duration : 1h 27mn
Bit rate mode : Variable
Bit rate : 135 Kbps
Minimum bit rate : 130 Kbps
Channel(s) : 2 channels
Sampling rate : 48.0 KHz
Resolution : 16 bits
Stream size : 84.6 MiB (12%)
Alignment : Aligned on interleaves
Interleave, duration : 24 ms (0.60 video frame)
Interleave, preload duration : 455 ms
Writing library : LAME3.96a
Encoding settings : ABR

http://www.imdb.com/title/tt1278340/

related torrents

Torrent name

health leech seeds Size
 

comments (0)

Main Menu