Action

Cusack Der Schweigsame DVDRip Xvid

  • Download 5x Faster
  • Download torrent
  • Direct Download
  • Rate this torrent +  |  -
Cusack Der Schweigsame DVDRip Xvid

Download FREE And Anonymously


Torrent info

Name:Cusack Der Schweigsame DVDRip Xvid

Total Size: 1.37 GB

Magnet: Magnet Link

Seeds: 0

Leechers: 0

Stream: Watch Full Movie @ Movie4u

Last Updated: 2010-08-15 19:53:47 (Update Now)

Torrent added: 2009-08-21 23:49:33



VPN For Torrents

Torrent Files List


Cusack_Der_Schweigsame.nfo (Size: 1.37 GB) (Files: 3)

 Cusack_Der_Schweigsame.nfo

3.42 KB

 Cusack.png

142.88 KB

 CuKUKAsack.avi

1.37 GB
 

Announce URL: http://irrenhaus.dyndns.dk/announce.php

Torrent description






Eddie Cusack (Norris) ist ein Chicagoer Polizist, der nur nach den eigenen Regeln spielt.
Eine gefhrliche Sache, besonders jetzt, da er den "Schweigecodex" der Polizei bricht,
um einen vertuschten Skandal aufzudecken. Als Auenseiter kann er nicht mehr auf die Hilfe
seiner erbosten Kollegen bauen, als er zwischen die Fronten zweier rivalisierender
Drogenbarone gert. Doch Cusack ist eine Ein-Mann-Armee. Seine Waffen im Kampf gegen das
Verbrechen sind sein rasiermesserscharfer Verstand, blitzschnelle Karateschlge und eine
besondere berraschung: "Prowler", ein ferngesteuerter, raketenbestckter Panzer!

Originaltitel: Code of Silence
Herstellungsland: USA
Erscheinungsjahr: 1985
Regie: Andrew Davis
Darsteller: Chuck Norris, Henry Silva, Bert Remsen, Mike Genovese

Allgemein
Format : AVI
Format/Info : Audio Video Interleave
Dateigr e : 1,37 GiB
Duration : 1h 36min
Gesamte Bitrate : 2 033 Kbps
Verwendetes Programm : VirtualDubMod 1.5.4.1 (build 2178/release)
verwendete Encoder-Bibliothek : VirtualDubMod build 2178/release
IAS1 : English
IAS2 : Deutsch
IAS3 : Francais
IAS4 : Italiano
IAS5 : Espanol

Video
Format : MPEG-4 Visual
Format profile : Streaming [email protected]
Format settings, BVOP : Ja
Format settings, QPel : Nein
Format settings, GMC : No warppoints
Format settings, Matrix : Custom
Codec ID : XVID
Codec ID/Hint : XviD
Duration : 1h 36min
Bitrate : 898 Kbps
Breite : 608 Pixel
H he : 320 Pixel
Bildseitenverh ltnis : 1.900
Bildwiederholungsrate : 25,000 FPS
Aufl sung : 24 bits
Colorimetry : 4:2:0
Scan type : Progressive
Bits/(Pixel*Frame) : 0.185
Stream size : 620 MiB (44)
verwendete Encoder-Bibliothek : XviD 50

Audio #1
Format : AC-3
Format/Info : Audio Coding 3
Codec ID : 2000
Duration : 1h 36min
Bitraten-Modus : Constant
Bitrate : 224 Kbps
Kan le : 2 Kan le
Channel positions : L R
Samplingrate : 48,0 KHz
Stream size : 155 MiB (11)
Alignment : Aligned on interleaves
Interleave, duration : 96 ms (2,40 video frames)
Interleave, preload duration : 96 ms

Audio #2
Format : AC-3
Format/Info : Audio Coding 3
Codec ID : 2000
Duration : 1h 36min
Bitraten-Modus : Constant
Bitrate : 224 Kbps
Kan le : 2 Kan le
Channel positions : L R
Samplingrate : 48,0 KHz
Stream size : 155 MiB (11)
Alignment : Aligned on interleaves
Interleave, duration : 96 ms (2,40 video frames)
Interleave, preload duration : 96 ms

Audio #3
Format : AC-3
Format/Info : Audio Coding 3
Codec ID : 2000
Duration : 1h 36min
Bitraten-Modus : Constant
Bitrate : 224 Kbps
Kan le : 2 Kan le
Channel positions : L R
Samplingrate : 48,0 KHz
Stream size : 155 MiB (11)
Alignment : Aligned on interleaves
Interleave, duration : 96 ms (2,40 video frames)
Interleave, preload duration : 96 ms

Audio #4
Format : AC-3
Format/Info : Audio Coding 3
Codec ID : 2000
Duration : 1h 36min
Bitraten-Modus : Constant
Bitrate : 224 Kbps
Kan le : 2 Kan le
Channel positions : L R
Samplingrate : 48,0 KHz
Stream size : 155 MiB (11)
Alignment : Aligned on interleaves
Interleave, duration : 96 ms (2,40 video frames)
Interleave, preload duration : 96 ms

Audio #5
Format : AC-3
Format/Info : Audio Coding 3
Codec ID : 2000
Duration : 1h 36min
Bitraten-Modus : Constant
Bitrate : 224 Kbps
Kan le : 2 Kan le
Channel positions : L R
Samplingrate : 48,0 KHz
Stream size : 155 MiB (11)
Alignment : Aligned on interleaves
Interleave, duration : 96 ms (2,40 video frames)
Interleave, preload duration : 96 ms

related torrents

Torrent name

health leech seeds Size
 


comments (0)

Main Menu

 

script data-cfasync="false" src="//d2ghscazvn398x.cloudfront.net/?cshgd=690275">