Action

Cry Wolf 2005 German DVDRip XviD

  • Download 5x Faster
  • Download torrent
  • Direct Download
  • Rate this torrent +  |  -
Cry Wolf 2005 German DVDRip XviD

Anonymous and Free Direct Download 300GB+


Torrent info

Name:Cry Wolf 2005 German DVDRip XviD

Total Size: 700.00 MB

Magnet: Magnet Link

Seeds: 0

Leechers: 0

Stream: Watch Online @ Movie4u

Last Updated: 2015-08-08 18:21:12 (Update Now)

Torrent added: 2009-08-21 23:48:20



VPN For Torrents

Torrent Files List


nfo.nfo (Size: 700.00 MB) (Files: 2)

 nfo.nfo

2.03 KB

 Cry.Wolf.2005.DVDRip.XviD.German.avi

700.00 MB
 

Announce URL:

Torrent description




General
Vollständiger Name : Cry.Wolf.2005.DVDRip.XviD.German.avi
Format : AVI
Format/Info : Audio Video Interleave
Dateigre : 700 MiB
Duration : 1h 26min
Gesamte Bitrate : 1127 Kbps
Verwendetes Programm : VirtualDubMod 1.5.4.1 (build 2178/release)
verwendete Encoder-Bibliothek : VirtualDubMod build 2178/release

Video
Format : MPEG-4 Visual
Format profile : Streaming [email protected]
Format settings, BVOP : Yes
Format settings, QPel : No
Format settings, GMC : 0 warppoint
Format settings, Matrix : Custom
Codec ID : XVID
Codec ID/Hint : XviD
Duration : 1h 26min
Bitrate : 985 Kbps
Breite : 640 Pixel
Höhe : 272 Pixel
Bildseitenverhältnis : 2.35
Bildwiederholungsrate : 25.000 FPS
Auflösung : 8 bits
Colorimetry : 4:2:0
Scan type : Progressive
Bits/(Pixel*Frame) : 0.226
Stream size : 612 MiB
verwendete Encoder-Bibliothek : XviD 1.2.0SMP
verwendete Encoder-Bibliothek /D : UTC 2006-01-08

Audio
Format : MPEG Audio
Format version : Version 1 / Layer 3
Codec ID : 55
Codec ID/Hint : MP3
Duration : 1h 26min
Bitraten-Modus : VBR
Bitrate : 129 Kbps
Minimum bit rate : 128 Kbps
Kanäle : 2 Kanäle
Samplingrate : 48.0 KHz
Auflösung : 16 bits
Stream size : 80.2 MiB
verwendete Encoder-Bibliothek : LAME3.96r
Kodierungseinstellungen : ABR












related torrents

Torrent name

health leech seeds Size
 


comments (0)

Main Menu