Horror

Stephen King's The Night Flier[1997]DVDrip[Eng][FS] Atlas47

  • Download 5x Faster
  • Download torrent
  • Direct Download
  • Rate this torrent +  |  -
Stephen King's The Night Flier[1997]DVDrip[Eng][FS] Atlas47

Anonymous and Direct Download 300GB+ free


Torrent info

Name:Stephen King's The Night Flier[1997]DVDrip[Eng][FS] Atlas47

Total Size: 801.44 MB

Magnet: Magnet Link

Seeds: 0

Leechers: 0

Stream: Watch Online @ Movie4u

Last Updated: 2016-02-02 05:37:15 (Update Now)

Torrent added: 2009-08-21 23:33:33




Torrent Files List


The Night Flier.nfo (Size: 801.44 MB) (Files: 3)

 The Night Flier.nfo

10.46 KB

 Stephen King's - The Night Flier.avi

800.32 MB

 Covers

  The Night Flier.jpg

1.11 MB
 

tracker

leech seeds
 

Torrent description


±±±±±±±±±±±±±±±±±±±±±±±±±±±±±±>>www.tornster.com<<±±±±±±±±±±±±±±±±±±±±±±±±±±±±±±
± ±
± INFO: ±
± ±
± General ±
± Complete name : Stephen King's - The Night Flier ±
± Genre : Fantasy / Horror / Mystery ±
± Format : AVI ±
± Format/Info : Audio Video Interleave ±
± File size : 800 MiB ±
± Duration : 1h 32mn ±
± Overall bit rate : 1 210 Kbps ±
± Writing application : VirtualDubMod 1.5.4.1 (build 2178/release)±
± Writing library : VirtualDubMod build 2178/release ±
± ±
± Video ±
± Format : MPEG-4 Visual ±
± Format settings, BVOP : Yes ±
± Format settings, QPel : No ±
± Format settings, GMC : No warppoints ±
± Format settings, Matrix : Default ±
± Codec ID : DX50 ±
± Codec ID/Hint : DivX 5 ±
± Duration : 1h 32mn ±
± Bit rate : 1 075 Kbps ±
± Width : 624 pixels ±
± Height : 480 pixels ±
± Display aspect ratio : 1.300 ±
± Frame rate : 25.000 fps ±
± Resolution : 24 bits ±
± Colorimetry : 4:2:0 ±
± Scan type : Progressive ±
± Bits/(Pixel*Frame) : 0.144 ±
± Stream size : 711 MiB (89%) ±
± Writing library : DivX 2816 ±
± ±
± Audio ±
± Format : MPEG Audio ±
± Format version : Version 1 ±
± Format profile : Layer 3 ±
± Codec ID : 55 ±
± Codec ID/Hint : MP3 ±
± Duration : 1h 32mn ±
± Bit rate mode : Constant ±
± Bit rate : 128 Kbps ±
± Minimum bit rate : 128 Kbps ±
± Channel(s) : 2 channels ±
± Sampling rate : 48.0 KHz ±
± Resolution : 16 bits ±
± Stream size : 84.7 MiB (11%) ±
± Alignment : Aligned on interleaves ±
± Interleave, duration : 80 ms (2.00 video frames) ±
± Interleave, preload duration : 504 ms ±
± Writing library : LAME3.98r ±
± Encoding settings : CBR ±
± Language : English ±
± ±
± IMDb Rating : 5.6/10 ±
± IMDb URL : http://www.imdb.com/title/tt0119784/ ±
± ±
±°°°°°°°°°°°°°°°°°°°°°°°°°°°°°°°°°°°°°°°°°°°°°°°°°°°°°°°°°°°°°°°°°°°°°°°°°°°°°°±
± ±
± For Richard Dees facts are always stranger than fiction. Every headline is a ±
± dead-line. Serial killers, UFO abductions, tales of molestation, mayhem and ±
± murder. To some the tales are unbelievable -- but his faithful readers ±
± believe. And now there's a new story. The Night Flier. What is it that flies ±
± by night in a dark-winged Cessna, lands at secluded airports and brutally ±
± murders local residents? Dees begins to follow the unknown killer in a ±
± Cessna of his own, uncovering clues that reveal a pilot more terrifying than ±
± he could ever have imagined. A creature so untamed by human nature, that ±
± their final confrontation will leave no body unblooded. ±
± ±
± ±
±°°°°°°°°°°°°°°°°°°°°°°°°°°°°°°°°°°°°°°°°°°°°°°°°°°°°°°°°°°°°°°°°°°°°°°°°°°°°°°±
± ±
± CAST: ±
± ±
± Miguel Ferrer..............Richard Dees ±
± Julie Entwisle.............Katherine Blair ±
± Dan Monahan................Merton Morrison ±
± Michael H. Moss............Dwight Renfield ±
± John Bennes................Ezra Hannon ±
± Beverly Skinner............Selida McCamon ±
± Rob Wilds..................Buck Kendall ±
± ±
±°°°°°°°°°°°°°°°°°°°°°°°°°°°°°°°°°°°°°°°°°°°°°°°°°°°°°°°°°°°°°°°°°°°°°°°°°°°°°°±
± ±
± Please remember to seed ±
± ±
± Standalone Enabled ±
± ±
± www.tornster.com ±
± ±
±±±±±±±±±±±±±±±±±±±±±±±±±±±±±±±±±±±±±±±±±±±±±±±±±±±±±±±±±±±±±±±±±±±±±±±±±±±±±±±±

related torrents

Torrent name

health leech seeds Size
 


comments (0)

Main Menu