Action

Convoy(1978) [DvDrip Xvid][Eng AC3 6ch] Omifast Greek

  • Download 5x Faster
  • Download torrent
  • Direct Download
  • Rate this torrent +  |  -
Convoy(1978) [DvDrip Xvid][Eng AC3 6ch] Omifast Greek

Anonymous and Direct Download 300GB+ free


Torrent info

Name:Convoy(1978) [DvDrip Xvid][Eng AC3 6ch] Omifast Greek

Total Size: 1.40 GB

Magnet: Magnet Link

Seeds: 0

Leechers: 0

Stream: Watch Online @ Movie4u

Last Updated: 2011-02-12 08:04:36 (Update Now)

Torrent added: 2009-08-21 23:32:13




Torrent Files List


Sample + Trailer (Size: 1.40 GB) (Files: 14)

 Sample + Trailer

  Convoy - Trailer.mp4

3.88 MB

  Convoy - Sample.avi

28.27 MB

 Movie + GRsubs

  Convoy.sub

4.23 MB

  Convoy.idx

40.68 KB

  Convoy.avi

1.37 GB

 Info + Snapsots

  Snapsots

   Convoy_24.jpg

43.52 KB

   Convoy_23.jpg

36.24 KB

   Convoy_22.jpg

47.17 KB

   Convoy_21.jpg

40.07 KB

   Convoy_15.jpg

38.20 KB

   Convoy_10.jpg

43.39 KB

  Info Documents

   Greek Info.doc

1.89 KB

   English Info.rtf

0.45 KB

   Convoy - Media Info.txt

2.05 KB
 

Announce URL:

Torrent description

SEPARATE GREEK SUBTITLES

Movie Trailer, Sample, Snapsots, English and Greek Info.txt Included

------------------------------------------------------------------------------

Convoy (1978) - Original DvDrip
http://www.imdb.com/title/tt0077369/

A mile-long convoy of protesting truckers speeds along the Arizona highway toward the Mexican border. The tense action builds to an incredible climax in one of the most destructive auto crash scenes ever filmed.

Starring: Kris Kristofferson, Ali MacGraw, Ernest Borgnine,

Director: Sam Peckinpah

------------------------------------------------------------------------------

Direct Download, Photo, Trailer, and Full Synopsis in Greek:
www.omifast-mainmovies.blogspot.com

------------------------------------------------------------------------------

General

Format : AVI
Format/Info : Audio Video Interleave
File size : 1.37 GiB
Duration : 1h 46mn
Overall bit rate : 1 843 Kbps
Writing application : VirtualDubMod 1.5.4.1 (build 2178/release)
Writing library : VirtualDubMod build 2178/release

Video
ID : 0
Format : MPEG-4 Visual
Format profile : [email protected]
Format settings, BVOP : Yes
Format settings, QPel : No
Format settings, GMC : No warppoints
Format settings, Matrix : Custom
Codec ID : XVID
Codec ID/Hint : XviD
Duration : 1h 46mn
Bit rate : 1 389 Kbps
Width : 784 pixels
Height : 336 pixels
Display aspect ratio : 2.35:1
Frame rate : 25.000 fps
Resolution : 24 bits
Colorimetry : 4:2:0
Scan type : Progressive
Bits/(Pixel*Frame) : 0.211
Stream size : 1.03 GiB (75%)
Writing library : XviD 1.2.1 (UTC 2008-12-04)

Audio
ID : 1
Format : AC-3
Format/Info : Audio Coding 3
Codec ID : 2000
Duration : 1h 46mn
Bit rate mode : Constant
Bit rate : 448 Kbps
Channel(s) : 6 channels
Channel positions : Front: L C R, Surround: L R, LFE
Sampling rate : 48.0 KHz
Stream size : 340 MiB (24%)
Alignment : Split accross interleaves
Interleave, duration : 96 ms (2.40 video frames)
Interleave, preload duration : 96 ms
Language : English


!

related torrents

Torrent name

health leech seeds Size
 


comments (0)

Main Menu