Action

Clubbed 2008 DVDRIP XviD ZEKTORM

  • Download 5x Faster
  • Download torrent
  • Direct Download
  • Rate this torrent +  |  -
Clubbed 2008 DVDRIP XviD ZEKTORM

Free and Direct Download with Usenet.nl 300GB+ free


Torrent info

Name:Clubbed 2008 DVDRIP XviD ZEKTORM

Total Size: 701.09 MB

Magnet: Magnet Link

Seeds: 2

Leechers: 1

Stream: Watch Online @ Movie4u

Last Updated: 2012-06-26 11:17:16 (Update Now)

Torrent added: 2009-08-21 23:24:05





Torrent Files List


Torrent downloaded from Demonoid.com.txt (Size: 701.09 MB) (Files: 3)

 Torrent downloaded from Demonoid.com.txt

0.05 KB

 READ.hlp

10.97 KB

 Clubbed.2008.DVDRIP.XviD-ZEKTORM.avi

701.08 MB
 

Announce URL: http://tracker.torrentbox.com:2710/announce

Torrent description

Title : Clubbed
Year : 2008
Genre : Crime
iMDB URL : http://www.imdb.com/title/tt0856778/
Awards : 1 nomination

Complete name : Clubbed.2008.DVDRIP.XviD-ZEKTORM.avi
Format : AVI
File size : 701 MiB
Duration : 1h 34mn
Overall bit rate : 1034 Kbps
Source : DVD NTSC

Video
Format : MPEG-4 Visual
Format profile : Streaming [email protected]
Codec ID : DX50
Codec ID/Hint : DivX 5
Duration : 1h 34mn
Bit rate : 899 Kbps
Width : 720 pixels
Height : 384 pixels
Display aspect ratio : 1.875
Frame rate : 23.976 fps
Resolution : 24 bits
Colorimetry : 4:2:0
Scan type : Progressive
Bits/(Pixel*Frame) : 0.136
Stream size : 609 MiB (87%)
Writing library : XviD

Audio
Format : MPEG Audio
Format version : Version 1
Format profile : Layer 3
Codec ID : 55
Codec ID/Hint : MP3
Duration : 1h 34mn
Bit rate mode : Constant
Bit rate : 128 Kbps
Channel(s) : 2 channels
Sampling rate : 48.0 KHz
Resolution : 16 bits
Stream size : 86.8 MiB (12%)

related torrents

Torrent name

health leech seeds Size
 

comments (0)

Main Menu