Action

Chopper[2000] AC3 5 1 DVDrip Maka6358 avi 1

  • Download 5x Faster
  • Download torrent
  • Direct Download
  • Rate this torrent +  |  -
Chopper[2000] AC3 5 1 DVDrip Maka6358 avi 1

Anonymous and Direct Download 300GB+ free


Torrent info

Name:Chopper[2000] AC3 5 1 DVDrip Maka6358 avi 1

Total Size: 1.37 GB

Magnet: Magnet Link

Seeds: 1

Leechers: 1

Stream: Watch Online @ Movie4u

Last Updated: 2010-11-30 14:36:43 (Update Now)

Torrent added: 2009-08-21 23:17:15




Torrent Files List


Torrent_downloaded_from_Demonoid.com.txt (Size: 1.37 GB) (Files: 4)

 Torrent_downloaded_from_Demonoid.com.txt

0.05 KB

 Chopper info.txt

3.02 KB

 Chopper[2000]-AC3-5.1-DVDrip-Maka6358.avi

1.37 GB

 [www.DarksideRG.com]Hellraiser.jpg

126.92 KB
 

Announce URL: http://tracker.thepiratebay.org:80/announce

Torrent description

Chopper tells the intense story of Mark "Chopper" Read, a legendary criminal who wrote his

autobiography while serving a murder sentence in prison. His book, From the Inside, upon which

the film is based, was a best-seller.

http://www.imdb.com/title/tt0221073/

General
Complete name : Chopper[2000]-AC3-5.1-DVDrip-Maka6358.avi\Chopper info.txt
File size : 271 Bytes

General
Complete name : Chopper[2000]-AC3-5.1-DVDrip-Maka6358.avi
Format : AVI
Format/Info : Audio Video Interleave
File size : 1.37 GiB
Duration : 1h 30mn
Overall bit rate : 2 172 Kbps
Writing application : VirtualDubMod 1.5.4.1 (build 2178/release)
Writing library : VirtualDubMod build 2178/release

Video
Format : MPEG-4 Visual
Format profile : Streaming [email protected]
Format settings, BVOP : Yes
Format settings, QPel : No
Format settings, GMC : No warppoints
Format settings, Matrix : Custom
Codec ID : XVID
Codec ID/Hint : XviD
Duration : 1h 30mn
Bit rate : 1 718 Kbps
Width : 720 pixels
Height : 416 pixels
Display aspect ratio : 16/9
Frame rate : 25.000 fps
Resolution : 24 bits
Colorimetry : 4:2:0
Scan type : Progressive
Bits/(Pixel*Frame) : 0.229
Stream size : 1.08 GiB (79%)
Writing library : XviD 1.2.0.dev47 (UTC 2006-11-01)

Audio
Format : AC-3
Format/Info : Audio Coding 3
Codec ID : 2000
Duration : 1h 30mn
Bit rate mode : Constant
Bit rate : 448 Kbps
Channel(s) : 6 channels
Channel positions : Front: L C R, Surround: L R, LFE
Sampling rate : 48.0 KHz
Video delay : 7ms
Stream size : 288 MiB (21%)
Alignment : Split accross interleaves
Interleave, duration : 96 ms (2.40 video frames)
Interleave, preload duration : 96 ms
Language : English

General
Complete name : Torrent_downloaded_from_Demonoid.com.txt
File size : 47.0 Bytes

General
Complete name : [www.DarksideRG.com]Hellraiser.jpg
Format : JPEG
File size : 127 KiB

Image
Format : JPEG
Width : 200 pixels
Height : 225 pixels
Resolution : 24 bits

Info Hash : 732D336B1C0985141FDC628DC31F27415519AC82

related torrents

Torrent name

health leech seeds Size
 


comments (0)

Main Menu