Action

Chocolate 2008 720p BluRay DTS x264 ESiR

  • Download 5x Faster
  • Download torrent
  • Direct Download
  • Rate this torrent +  |  -
Chocolate 2008 720p BluRay DTS x264 ESiR

Free and Direct Download with Usenet 300GB+ free


Torrent info

Name:Chocolate 2008 720p BluRay DTS x264 ESiR

Total Size: 4.37 GB

Magnet: Magnet Link

Seeds: 0

Leechers: 0

Stream: Watch Online @ Movie4u

Last Updated: 2011-06-11 15:32:53 (Update Now)

Torrent added: 2009-08-21 23:15:28




Torrent Files List


Chocolate.2008.720p.BluRay.DTS.x264-ESiR.nfo (Size: 4.37 GB) (Files: 2)

 Chocolate.2008.720p.BluRay.DTS.x264-ESiR.nfo

5.71 KB

 Chocolate.2008.720p.BluRay.DTS.x264-ESiR.mkv

4.37 GB
 

Announce URL: http://hdme.eu/announce.php

Torrent description

General
Complete name : Chocolate.2008.720p.BluRay.DTS.x264-ESiR
Format : Matroska
File size : 4.37 GiB
Duration : 1h 32mn
Overall bit rate : 6 772 Kbps
Movie name : Chocolate (2008)
Encoded date : UTC 2008-11-04 22:08:53
Writing application : mkvmerge v2.4.0 ('Fumbling Towards Ecstasy') built on Oct 11 2008 20:13:15
Writing library : libebml v0.7.7 + libmatroska v0.8.1
Cover : Yes / Yes / Yes

Video
ID : 1
Format : AVC
Format/Info : Advanced Video Codec
Format profile : [email protected]
Format settings, CABAC : Yes
Format settings, ReFrames : 8 frames
Muxing mode : Container [email protected]
Codec ID : V_MPEG4/ISO/AVC
Duration : 1h 32mn
Bit rate : 5 101 Kbps
Nominal bit rate : 5 259 Kbps
Width : 1 280 pixels
Height : 712 pixels
Display aspect ratio : 16/9
Frame rate : 24.000 fps
Resolution : 24 bits
Colorimetry : 4:2:0
Scan type : Progressive
Bits/(Pixel*Frame) : 0.233
Stream size : 3.29 GiB (75%)
Language : Thai

Audio
ID : 2
Format : DTS
Format/Info : Digital Theater Systems
Codec ID : A_DTS
Duration : 1h 32mn
Bit rate mode : Constant
Bit rate : 1 536 Kbps
Channel(s) : 6 channels
Channel positions : Front: L C R, Surround: L R, LFE
Sampling rate : 48.0 KHz
Resolution : 24 bits
Stream size : 1 016 MiB (23%)
Language : Thai

Text
ID : 3
Format : ASS
Codec ID : S_TEXT/ASS
Codec ID/Info : Advanced Sub Station Alpha
Language : English

related torrents

Torrent name

health leech seeds Size
 

comments (0)

Main Menu