Action

Castle Keep DVDRip XviD AC3 5rFF[ BOX]

  • Download 5x Faster
  • Download torrent
  • Direct Download
  • Rate this torrent +  |  -
Castle Keep DVDRip XviD AC3 5rFF[ BOX]

Free and Direct Download with Usenet 300GB+ free


Torrent info

Name:Castle Keep DVDRip XviD AC3 5rFF[ BOX]

Total Size: 1.38 GB

Magnet: Magnet Link

Seeds: 0

Leechers: 0

Stream: Watch Online @ Movie4u

Last Updated: 0000-00-00 00:00:00 (Update Now)

Torrent added: 2009-08-21 23:06:14




Torrent Files List


Sample (Size: 1.38 GB) (Files: 3)

 Sample

  5rFF-cast-sample.avi

12.60 MB

 NFO.txt

1.99 KB

 5rFF-cast.avi

1.37 GB
 

Announce URL: http://www.twilighttorrents.net/announce.php?passkey=77989bcee1c8484d19da77e26d312034

Torrent description

Castle Keep (1969) DVDRip.XviD.AC3.5rFF

Plot:
Toward the end of World War II, a small company of American GI's occupy an ancient castle. Their commander has an affair with the countess in resident. One guy falls in love with a Volkswagon. A baker among them moves in with another baker's wife. A group of shell shocked holy rollers wander the bombed out streets. A GI art historian tries vainly to protect the castle and its masterpieces.
IMDB:http://www.imdb.com/title/tt0064137/

General:
Complete name: 5rFF-cast.avi
Format: AVI
Format/Info: Audio Video Interleave
File size: 1.37 GiB
Duration: 1h 42mn
Overall bit rate: 1 903 Kbps
Writing application: VirtualDubMod 1.5.4.1 (build 2178/release)
Writing library: VirtualDubMod build 2178/release

Video:
Format: MPEG-4 Visual
Format profile: Streaming [email protected]
Format settings, BVOP: No
Format settings, QPel: No
Format settings, GMC: No warppoints
Format settings, Matrix: Custom
Codec ID: XVID
Codec ID/Hint: XviD
Duration: 1h 42mn
Bit rate: 1 448 Kbps
Width: 720 pixels
Height: 304 pixels
Display aspect ratio: 2.35
Frame rate: 25.000 fps
Resolution: 24 bits
Colorimetry: 4:2:0
Scan type: Progressive
Bits/(Pixel*Frame): 0.265
Stream size: 1.04 GiB (76%)
Writing library: XviD 50

Audio:
Format: AC-3
Format/Info: Audio Coding 3
Codec ID: 2000
Duration: 1h 42mn
Bit rate mode: Constant
Bit rate: 448 Kbps
Channel(s): 4 channels
Channel positions: Front: L C R, Rear: C
Sampling rate: 48.0 KHz
Stream size: 330 MiB (24%)
Alignment: Aligned on interleaves
Interleave, duration: 96 ms (2.40 video frames)
Interleave, preload duration: 96 ms
Language: English

related torrents

Torrent name

health leech seeds Size

Castle Keep rarbg com

0 0 5.73 GB 0
 

comments (0)

Main Menu