Action

Carga Explosiva 3 Dual Audio DVDRip XviD pL413R

  • Download 5x Faster
  • Download torrent
  • Direct Download
  • Rate this torrent +  |  -
Carga Explosiva 3 Dual Audio DVDRip XviD pL413R

Anonymous and Direct Download 300GB+ free


Torrent info

Name:Carga Explosiva 3 Dual Audio DVDRip XviD pL413R

Total Size: 700.84 MB

Magnet: Magnet Link

Seeds: 2

Leechers: 1

Stream: Watch Online @ Movie4u

Last Updated: 0000-00-00 00:00:00 (Update Now)

Torrent added: 2009-08-21 22:58:05




Torrent Files List


thumbs.jpg (Size: 700.84 MB) (Files: 7)

 thumbs.jpg

202.33 KB

 screen3.jpg

26.08 KB

 screen2.jpg

21.47 KB

 screen1.jpg

23.19 KB

 Carga.Explosiva.3.Dual.Audio.DVDRip.XviD-pL413R.srt

61.38 KB

 Carga.Explosiva.3.Dual.Audio.DVDRip.XviD-pL413R.nfo

12.80 KB

 Carga.Explosiva.3.Dual.Audio.DVDRip.XviD-pL413R.avi

700.50 MB
 

Announce URL: http://tracker.thepiratebay.org/announce

Torrent description


ÉÍÄÍÍÍÍÍÍÍÍÍÄÍ» ÉÄËÄÄËÄÄÄËÄÄÄÄËÍÄÄÄÍËÍÄÄÄÍËÄÄÄÄËÄÄÄËÄÄËÄ» ÉÍÄÍÍÍÍÍÍÍÍÍÄÍ»
ÈÎ ÈÍÄÍÍÍÍÍÄͼÍÊÍÍÊÍÍÍÊÍÍÍÍÊÍÍÍÍÍÊÍÍÍÍÍÊÍÍÍÍÊÍÍÍÊÍÍÊÍÈÍÄÍÍÍÍÍÄͼ μ
²³ pL413R present Carga.Explosiva.3.Dual.Audio.DVDRip.XviD-pL413R ³±
²³ ³±
²³ ReLeaSe Transpoter 3 ³±
²³ TyPe Action | Adventure | Crime | Thriller ³±
²³ LaNGuaGe Portuguese/English ³±
²³ ReLeaSe DaTe 12 May 2009 ³±
²³ STReeT DaTe 12 December 2008 (Brazil) ³±
²³ RiPPeR pL413R ³±
²³ ViDeo ³±
²³ auDio VBR mp3 ³±
²³ BiT RaTe SBC 694 Kbps ³±
²³ CoDeC XviD ³±
²³ FRaMe RaTe 23.98fps ³±
²³ ReSoLuTioN 560 x 320 ³±
ɼËÍÄÄÄÄÄÄÄÄÄÄÄÄÄÄÄÄÄÍÍÍÍÍÍÍÍÍÍÍÍÍÍÍÍÍÍÍÍÍÍÍÍÍÍÍÍÍÍÍÍÍÍÍÍÍÍÍÍÍÍÍÍÍÍÍÄÄÄÄÄÄÄÄÄÄÄÄÄÄÄÄÄÍËÈ»
Èμ Ð Ð Ð Ð Ð Ð Ð Ð Ð Ð Ð Ð Ð Ð Ð Ð Ð Ð Ð Ð Ð Ð Ð Ð Ð Ð Ð Ð Ð Ð Ð Ð Ð Ð Ð Ð Ð Ð Ð Ð Ð Èμ
ÈÍÄÍÍÍÍÍÍÍÍÍÍÍÍÍÍÍÄÍ» ÉÍÄÍÍÍÍÍÍÍÍÍÍÍÍÍÍÍÄͼ
ÉÍÄÍÍÍÍÍÍÍÍÍÍÍÍÍÍÍÍÄͼ ÈÍÄÍÍÍÍÍÍÍÍÍÍÍÍÍÍÍÍÄÍ»
ÈΠμ
²³ Lionsgate/Europa(2008). Length : 101min ³±
ɼËÍÄÄÄÄÄÄÄÄÄÄÄÄÄÄÄÄÄÍÍÍÍÍÍÍÍÍÍÍÍÍÍÍÍÍÍÍÍÍÍÍÍÍÍÍÍÍÍÍÍÍÍÍÍÍÍÍÍÍÍÍÍÍÍÍÄÄÄÄÄÄÄÄÄÄÄÄÄÄÄÄÄÍËÈ»
Èμ Ð Ð Ð Ð Ð Ð Ð Ð Ð Ð Ð Ð Ð Ð Ð Ð Ð Ð Ð Ð Ð Ð Ð Ð Ð Ð Ð Ð Ð Ð Ð Ð Ð Ð Ð Ð Ð Ð Ð Ð Ð Èμ
ÈÍÄÍÍÍÍÍÍÍÍÍÍÍÍÍÍÍÄÍ» ÉÍÄÍÍÍÍÍÍÍÍÍÍÍÍÍÍÍÄͼ
ÉÍÄÍÍÍÍÍÍÍÍÍÍÍÍÍÍÍÍÄͼ ÈÍÄÍÍÍÍÍÍÍÍÍÍÍÍÍÍÍÍÄÍ»
ÈΠμ
²³ Actors ³±
²³ ³±
²³ Jason Statham ... Frank Martin ³±
²³ Natalya Rudakova ... Valentina ³±
²³ François Berléand ... Tarconi ³±
²³ Robert Knepper ... Johnson ³±
²³ Jeroen Krabbé ... Leonid Vasilev ³±
²³ Alex Kobold ... Leonid´s Aide ³±
²³ David Atrakchi ... Malcom Manville ³±
²³ Yann Sundberg ... Flag ³±
²³ Eriq Ebouaney ... Ice ³±
²³ David Kammenos ... Driver Market ³±
²³ Silvio Simac ... Mighty Joe ³±
²³ Oscar Relier ... Thug / Driver ³±
²³ Timo Dierkes ... Otto ³±
²³ Igor Koumpan ... Cop Ukraine ³±
²³ Paul Barrett ... Captain ³±
²³ Elef Zack ... Mate ³±
ɼËÍÄÄÄÄÄÄÄÄÄÄÄÄÄÄÄÄÄÍÍÍÍÍÍÍÍÍÍÍÍÍÍÍÍÍÍÍÍÍÍÍÍÍÍÍÍÍÍÍÍÍÍÍÍÍÍÍÍÍÍÍÍÍÍÍÄÄÄÄÄÄÄÄÄÄÄÄÄÄÄÄÄÍËÈ»
Èμ Ð Ð Ð Ð Ð Ð Ð Ð Ð Ð Ð Ð Ð Ð Ð Ð Ð Ð Ð Ð Ð Ð Ð Ð Ð Ð Ð Ð Ð Ð Ð Ð Ð Ð Ð Ð Ð Ð Ð Ð Ð Èμ
ÈÍÄÍÍÍÍÍÍÍÍÍÍÍÍÍÍÍÄÍ» ÉÍÄÍÍÍÍÍÍÍÍÍÍÍÍÍÍÍÄͼ
ÉÍÄÍÍÍÍÍÍÍÍÍÍÍÍÍÍÍÍÄͼ ÈÍÄÍÍÍÍÍÍÍÍÍÍÍÍÍÍÍÍÄÍ»
ÈΠμ
²³ Frank Martin puts the driving gloves on to deliver Valentina, the kidnapped ³±
²³ daughter of a Ukranian government official, from Marseilles to Odessa on the Black ³±
²³ Sea. En route, he has to contend with thugs who want to intercept Valentina\\'s safe ³±
²³ delivery and not let his personal feelings get in the way of his dangerous objective ³±
²³ ³±
²³ ³±
²³ General Complete name : ³±
²³ Carga.Explosiva.3.Dual.Audio.DVDRip.XviD-pL413R.avi ³±
²³ Format : AVI ³±
²³ Format/Info : Audio Video Interleave ³±
²³ File size : 701 MiB ³±
²³ Duration : 1h 43mn ³±
²³ Overall bit rate : 943 Kbps ³±
²³ Writing application : VirtualDubMod 1.5.4.1 (build 2178/release) ³±
²³ Writing library : VirtualDubMod build 2178/release ³±
²³ ³±
²³ ³±
²³ Video Format : MPEG-4 Visual ³±
²³ Format profile : Streaming [email protected] ³±
²³ Format settings, BVOP : Yes ³±
²³ Format settings, QPel : No ³±
²³ Format settings, GMC : No warppoints ³±
²³ Format settings, Matrix : Custom ³±
²³ Codec ID : XVID ³±
²³ Codec ID/Hint : XviD ³±
²³ Duration : 1h 43mn ³±
²³ Bit rate : 694 Kbps ³±
²³ Width : 560 pixels ³±
²³ Height : 320 pixels ³±
²³ Display aspect ratio : 16/9 ³±
²³ Frame rate : 23.976 fps ³±
²³ Resolution : 24 bits ³±
²³ Colorimetry : 4:2:0 ³±
²³ Scan type : Progressive ³±
²³ Bits/(Pixel*Frame) : 0.162 ³±
²³ Stream size : 516 MiB (74%) ³±
²³ Writing library : XviD 50 ³±
²³ ³±
²³ Audio #1 Format : MPEG Audio ³±
²³ Format version : Version 1 ³±
²³ Format profile : Layer 3 ³±
²³ Codec ID : 55 ³±
²³ Codec ID/Hint : MP3 ³±
²³ Duration : 1h 43mn ³±
²³ Bit rate mode : Variable ³±
²³ Bit rate : 115 Kbps ³±
²³ Minimum bit rate : 128 Kbps ³±
²³ Channel(s) : 2 channels ³±
²³ Sampling rate : 48.0 KHz ³±
²³ Resolution : 16 bits ³±
²³ Stream size : 84.9 MiB (12%) ³±
²³ Alignment : Aligned on interleaves ³±
²³ Interleave, duration : 24 ms (0.58 video frame) ³±
²³ Interleave, preload duration : 420 ms ³±
²³ Writing library : LAME3.98r ³±
²³ Encoding settings : ABR ³±
²³ Language : Portugues ³±
²³ ³±
²³ Audio #2 Format : MPEG Audio ³±
²³ Format version : Version 1 ³±
²³ Format profile : Layer 3 ³±
²³ Codec ID : 55 ³±
²³ Codec ID/Hint : MP3 ³±
²³ Duration : 1h 43mn ³±
²³ Bit rate mode : Variable ³±
²³ Bit rate : 114 Kbps ³±
²³ Minimum bit rate : 128 Kbps ³±
²³ Channel(s) : 2 channels ³±
²³ Sampling rate : 48.0 KHz ³±
²³ Resolution : 16 bits ³±
²³ Stream size : 84.4 MiB (12%) ³±
²³ Alignment : Aligned on interleaves ³±
²³ Interleave, duration : 24 ms (0.58 video frame) ³±
²³ Interleave, preload duration : 161 ms ³±
²³ Writing library : LAME3.98r ³±
²³ Encoding settings : ABR ³±
²³ Language : English ³±
²³ ³±
²³ Trailer http://www.youtube.com/watch?v=YRlUzGMlaSE ³±
²³ Note 5.9/10 ³±
ɼËÍÄÄÄÄÄÄÄÄÄÄÄÄÄÄÄÄÄÍÍÍÍÍÍÍÍÍÍÍÍÍÍÍÍÍÍÍÍÍÍÍÍÍÍÍÍÍÍÍÍÍÍÍÍÍÍÍÍÍÍÍÍÍÍÍÄÄÄÄÄÄÄÄÄÄÄÄÄÄÄÄÄÍËÈ»
Èμ Ð Ð Ð Ð Ð Ð Ð Ð Ð Ð Ð Ð Ð Ð Ð Ð Ð Ð Ð Ð Ð Ð Ð Ð Ð Ð Ð Ð Ð Ð Ð Ð Ð Ð Ð Ð Ð Ð Ð Ð Ð Èμ
ÈÍÄÍÍÍÍÍÍÍÍÍÍÍÍÍÍÍÄÍ» ÉÍÄÍÍÍÍÍÍÍÍÍÍÍÍÍÍÍÄͼ
ÉÍÄÍÍÍÍÍÍÍÍÍÍÍÍÍÍÍÍÄͼ ÈÍÄÍÍÍÍÍÍÍÍÍÍÍÍÍÍÍÍÄÍ»
ÈΠμ
²³ messenger: [email protected] ³±
Èμ Ð Ð Ð Ð Ð Ð Ð Ð Ð Ð Ð Ð Ð Ð Ð Ð Ð Ð Ð Ð Ð Ð Ð Ð Ð Ð Ð Ð Ð Ð Ð Ð Ð Ð Ð Ð Ð Ð Ð Ð Ð Èμ
ÈÍÍÍÍÍÍÍÍÍÍÍÍÍÍÍÍÍÍÍÍÍÍÍÍÍÍÍÍÍÍÍÍÍÍÍÍÍÍÍÍÍÍÍÍÍÍÍÍÍÍÍÍÍÍÍÍÍÍÍÍÍÍÍÍÍÍÍÍÍÍÍÍÍÍÍÍÍÍÍÍÍÍÍÍͼ

related torrents

Torrent name

health leech seeds Size
 


comments (0)

Main Menu