Action

[email protected] H 264 RIP

  • Download 5x Faster
  • Download torrent
  • Direct Download
  • Rate this torrent +  |  -

Torrent info

Name:[email protected] H 264 RIP

Total Size: 889.48 MB

Magnet: Magnet Link

Seeds: 7

Leechers: 2

Stream: Watch Online @ Movie4u

Last Updated: 2010-09-04 02:39:21 (Update Now)

Torrent added: 2009-08-21 22:49:37




Torrent Files List


Torrent downloaded from Demonoid.com.txt (Size: 889.48 MB) (Files: 3)

 Torrent downloaded from Demonoid.com.txt

0.05 KB

 Noname.jpg

23.66 KB

 bheart.mp4

889.45 MB
 

Announce URL: http://inferno.demonoid.com:3413/announce

Torrent description

Description

Mel Gibson
stars in and directs this sweeping saga about Scotland's brutal battle for independence in the 13th century. When William Wallace's (MEL GIBSON) wife
is ravaged and murdered by English troops, his quest for revenge quickly turns into an impassioned fight for his country's freedom. Tales of Wallace's bravery inspire every commoner to take arms against the English and escalate their crusade into a full scale war.

Braveheart is a rich, emotionally charged historic epic filled with passion, betrayal and courage. Its scope and pageantry make it a true achievement in filmmaking history
.

Format : MPEG-4
Format profile : Base Media / Version 2
Codec ID : mp42
File size : 889 MiB
Duration : 2h 50mn
Overall bit rate : 730 Kbps
Encoded date : UTC 2009-05-19 19:26:29
Tagged date : UTC 2009-05-20 01:37:19
Writing application : HandBrake 0.9.3 2008112300

Video
Format : AVC
Format/Info : Advanced Video Codec
Format profile : [email protected]
Format settings, CABAC : Yes
Format settings, ReFrames : 3 frames
Codec ID : avc1
Codec ID/Info : Advanced Video Coding
Duration : 2h 50mn
Bit rate mode : Variable
Bit rate : 566 Kbps
Nominal bit rate : 574 Kbps
Width : 704 pixels
Height : 428 pixels
Display aspect ratio : 2.35
Frame rate mode : Variable
Frame rate : 25.000 fps
Minimum frame rate : 12.500 fps
Maximum frame rate : 25.000 fps
Resolution : 24 bits
Colorimetry : 4:2:0
Scan type : Progressive
Bits/(Pixel*Frame) : 0.075
Stream size : 690 MiB (78%)
Writing library : x264 core 65


Audio
Format : AAC
Format/Info : Advanced Audio Codec
Format version : Version 4
Format profile : LC
Format settings, SBR : No
Codec ID : 40
Duration : 2h 50mn
Bit rate mode : Variable
Bit rate : 160 Kbps
Maximum bit rate : 208 Kbps
Channel(s) : 2 channels
Channel positions : L R
Sampling rate : 48.0 KHz
Resolution : 16 bits
Stream size : 195 MiB (22%)
Language : English
Encoded date : UTC 2009-05-19 19:26:30
Tagged date : UTC 2009-05-20 01:37:17

related torrents

Torrent name

health leech seeds Size
 

comments (0)

Main Menu