Action

Braveheart [Eng,Ger] [emandoz 1 gig rip]

  • Download 5x Faster
  • Download torrent
  • Direct Download
  • Rate this torrent +  |  -
Braveheart [Eng,Ger] [emandoz 1 gig rip]

Anonymous and Free Direct Download


Torrent info

Name:Braveheart [Eng,Ger] [emandoz 1 gig rip]

Total Size: 0.98 GB

Magnet: Magnet Link

Seeds: 5

Leechers: 9

Stream: Watch Online @ Movie4u

Last Updated: 2010-11-02 13:08:00 (Update Now)

Torrent added: 2009-08-21 22:49:34



VPN For Torrents

Torrent Files List


what_is_a_emandoz_1gig_rip.nfo (Size: 0.98 GB) (Files: 4)

 what_is_a_emandoz_1gig_rip.nfo

1.18 KB

 braveheart_subs.rar

1.94 MB

 braveheart.mkv

0.98 GB

 braveheart.nfo

3.14 KB
 

Announce URL: http://tracker.openbittorrent.com:80/announce

Torrent description

emandoz presents:

Braveheart [Eng,Ger] [emandoz 1-gig rip]



Braveheart
Audio: English, German
Subs included
Source: PAL DVD

--------------------------------------------------------------------
Braveheart (1995)

Video
ID : 1
Format : AVC
Format/Info : Advanced Video Codec
Format profile : [email protected]
Format settings, CABAC : Yes
Format settings, ReFrames : 5 frames
Muxing mode : Container [email protected]
Codec ID : V_MPEG4/ISO/AVC
Duration : 2h 50mn
Bit rate : 552 Kbps
Nominal bit rate : 559 Kbps
Width : 704 pixels
Height : 428 pixels
Display aspect ratio : 2.35
Frame rate : 25.000 fps
Resolution : 24 bits
Colorimetry : 4:2:0
Scan type : Progressive
Bits/(Pixel*Frame) : 0.073
Stream size : 673 MiB (67%)
Writing library : x264 core 65
Encoding settings : cabac=1 / ref=5 / deblock=1:0:0 / analyse=0x3:0x133 / me=umh / subme=9 / psy_rd=1.0:1.0 / mixed_ref=1 / me_range=16 / chroma_me=1 / trellis=1 / 8x8dct=1 / cqm=0 / deadzone=21,11 / chroma_qp_offset=-4 / threads=3 / nr=0 / decimate=1 / mbaff=0 / bframes=6 / b_pyramid=1 / b_adapt=1 / b_bias=0 / direct=3 / wpredb=1 / keyint=250 / keyint_min=25 / scenecut=40(pre) / rc=2pass / bitrate=559 / ratetol=1.0 / qcomp=0.60 / qpmin=10 / qpmax=51 / qpstep=4 / cplxblur=20.0 / qblur=0.5 / ip_ratio=1.40 / pb_ratio=1.30 / aq=1:1.00

Audio #1
ID : 2
Format : MPEG Audio
Format version : Version 1
Format profile : Layer 3
Codec ID : A_MPEG/L3
Codec ID/Hint : MP3
Duration : 2h 50mn
Bit rate mode : Constant
Bit rate : 128 Kbps
Channel(s) : 2 channels, Dolby Surround ProLogic II
Sampling rate : 48.0 KHz
Resolution : 16 bits
Stream size : 156 MiB (16%)
Language : English

Audio #2
ID : 3
Format : MPEG Audio
Format version : Version 1
Format profile : Layer 3
Codec ID : A_MPEG/L3
Codec ID/Hint : MP3
Duration : 2h 50mn
Bit rate mode : Constant
Bit rate : 128 Kbps
Channel(s) : 2 channels, Dolby Surround ProLogic II
Sampling rate : 48.0 KHz
Resolution : 16 bits
Stream size : 156 MiB (16%)
Language : German


Subs
English, German for the hearing impaired
--------------------------------------------------------------------

related torrents

Torrent name

health leech seeds Size
 


comments (0)

Main Menu