Action

Blood Crime 2002 Eng AC3 3 2 DVDrip M333 FLAWL3SS

  • Download 5x Faster
  • Download torrent
  • Direct Download
  • Rate this torrent +  |  -
Blood Crime 2002 Eng AC3 3 2 DVDrip M333 FLAWL3SS

Anonymous and Free Direct Download 300GB+


Torrent info

Name:Blood Crime 2002 Eng AC3 3 2 DVDrip M333 FLAWL3SS

Total Size: 1.27 GB

Magnet: Magnet Link

Seeds: 0

Leechers: 1

Stream: Watch Online @ Movie4u

Last Updated: 2010-11-30 14:26:25 (Update Now)

Torrent added: 2009-08-21 22:37:33



VPN For Torrents

Torrent Files List


Torrent downloaded from Demonoid.com.txt (Size: 1.27 GB) (Files: 6)

 Torrent downloaded from Demonoid.com.txt

0.05 KB

 nfo.txt

2.95 KB

 Find us.jpg

218.31 KB

 Check us Out.txt

0.13 KB

 Blood Crime.jpg

35.45 KB

 Blood Crime 2002 Eng AC3-3.2 DVDrip-M333-FLAWL3SS.avi

1.27 GB
 

Announce URL: http://tpb.tracker.thepiratebay.org:80/announce

Torrent description

General
Complete name : Blood Crime 2002 Eng AC3-3.2 DVDrip-M333-FLAWL3SS.avi
Format : AVI
Format/Info : Audio Video Interleave
File size : 1.27 GiB
Duration : 1h 24mn
Overal bit rate : 2148 Kbps
Movie name : Blood Crime 2002 Eng AC3-3.2 DVDrip-M333-FLAWL3SS
Writing application : M333-FLAWL3SS_RG
Copyright : M333
Product : DVD VIDEO

Video
Format : MPEG-4 Visual
Format profile : [email protected]
Format settings, BVOP : No
Format settings, QPel : No
Format settings, GMC : No warppoints
Format settings, Matrix : Default
Codec ID : XVID
Codec ID/Hint : XviD
Duration : 1h 24mn
Bit rate : 1945 Kbps
Width : 720 pixels
Height : 416 pixels
Display aspect ratio : 16/9
Frame rate : 25.000 fps
Resolution : 8 bits
Colorimetry : 4:2:0
Scan type : Progressive
Bits/(Pixel*Frame) : 0.260
Stream size : 1.15 GiB
Writing library : XviD 1.1.2 (UTC 2006-11-01)

Audio
Format : AC-3
Format/Info : Audio Coding 3
Format profile : Dolby Digital
Codec ID : 2000
Duration : 1h 24mn
Bit rate mode : Constant
Bit rate : 192 Kbps
Channel(s) : 2 channels
Channel positions : L R
Sampling rate : 48.0 KHz
Stream size : 116 MiB
Language : undefined

Hash 6201A43AEA04B3921B0950FA5FBE064A69AEDC2F

Trackers

http://tpb.tracker.thepiratebay.org:80/announce

http://denis.stalker.h3q.com:6969/announce

http://open.tracker.thepiratebay.org/announce

http://www.torrentsnipe.info:2701/announce

http://open.tracker.thepiratebay.org/announce

http://vip.tracker.thepiratebay.org:80/announce


Screens

Blood Crime 2002 Eng AC3 3 2 DVDrip M333 FLAWL3SS preview 1

Blood Crime 2002 Eng AC3 3 2 DVDrip M333 FLAWL3SS preview 2

Blood Crime 2002 Eng AC3 3 2 DVDrip M333 FLAWL3SS preview 3

Blood Crime 2002 Eng AC3 3 2 DVDrip M333 FLAWL3SS preview 4

Blood Crime 2002 Eng AC3 3 2 DVDrip M333 FLAWL3SS preview 5

DVD Cover

Blood Crime 2002 Eng AC3 3 2 DVDrip M333 FLAWL3SS preview 0

IMDB

http://www.imdb.com/title/tt0305633/

TRAILER++++++TRAILER++++++TRAILER++++++TRAILER++++++TRAILER

http://www.imdb.com/title/tt0305633/trailers-screenplay-vi498794777

related torrents

Torrent name

health leech seeds Size
 


comments (0)

Main Menu