Action

Black Hawk Down[2001]DVDrip[Eng]AC3[5 1] Atlas47

  • Download 5x Faster
  • Download torrent
  • Direct Download
  • Rate this torrent +  |  -
Black Hawk Down[2001]DVDrip[Eng]AC3[5 1] Atlas47

Free and Direct Download with Usenet.nl 300GB+ free


Torrent info

Name:Black Hawk Down[2001]DVDrip[Eng]AC3[5 1] Atlas47

Total Size: 1.57 GB

Magnet: Magnet Link

Seeds: 0

Leechers: 0

Stream: Watch Online @ Movie4u

Last Updated: 2014-09-30 00:30:03 (Update Now)

Torrent added: 2009-08-21 22:31:51





Torrent Files List


ResourceRG_NFO_please_read.txt (Size: 1.57 GB) (Files: 6)

 ResourceRG_NFO_please_read.txt

20.91 KB

 Black Hawk Down.sub

4.05 MB

 Black Hawk Down.nfo

10.14 KB

 Black Hawk Down.idx

64.27 KB

 Black Hawk Down.avi

1.56 GB

 Covers

  Black Hawk Down.jpg

569.73 KB
 

Announce URL:

Torrent description


±±±±±±±±±±±±±±±±±±±±±±±±±±±±±±±±±±±±±±±±±±±±±±±±±±±±±±±±±±±±±±±±±±±±±±±±±±±±±±±±
± ±
± INFO: ±
± ±
± General ±
± Complete name : Black Hawk Down ±
± Genre : Action / Drama / History / War ±
± Format : AVI ±
± Format/Info : Audio Video Interleave ±
± File size : 1.56 GiB ±
± Duration : 2h 18mn ±
± Overall bit rate : 1 616 Kbps ±
± Writing application : VirtualDubMod 1.5.4.1 (build 2178/release)±
± Writing library : VirtualDubMod build 2178/release ±
± ±
± Video ±
± Format : MPEG-4 Visual ±
± Format settings, BVOP : Yes ±
± Format settings, QPel : No ±
± Format settings, GMC : No warppoints ±
± Format settings, Matrix : Default ±
± Codec ID : DX50 ±
± Codec ID/Hint : DivX 5 ±
± Duration : 2h 18mn ±
± Bit rate : 1 161 Kbps ±
± Width : 592 pixels ±
± Height : 256 pixels ±
± Display aspect ratio : 2.35 ±
± Frame rate : 25.000 fps ±
± Resolution : 24 bits ±
± Colorimetry : 4:2:0 ±
± Scan type : Progressive ±
± Bits/(Pixel*Frame) : 0.306 ±
± Stream size : 1.12 GiB (72%) ±
± Writing library : DivX 2816 ±
± ±
± Audio ±
± Format : AC-3 ±
± Format/Info : Audio Coding 3 ±
± Codec ID : 2000 ±
± Duration : 2h 18mn ±
± Bit rate mode : Constant ±
± Bit rate : 448 Kbps ±
± Channel(s) : 6 channels ±
± Channel positions : Front: L C R, Surround: L R, LFE ±
± Sampling rate : 48.0 KHz ±
± Stream size : 444 MiB (28%) ±
± Alignment : Split accross interleaves ±
± Interleave, duration : 80 ms (2.00 video frames) ±
± Interleave, preload duration : 500 ms ±
± Language : English ±
± Subtitles : English ±
± ±
± IMDb Rating : 7.7/10 ±
± IMDb URL : http://www.imdb.com/title/tt0265086/ ±
± ±
±°°°°°°°°°°°°°°°°°°°°°°°°°°°°°°°°°°°°°°°°°°°°°°°°°°°°°°°°°°°°°°°°°°°°°°°°°°°°°°±
± ±
± From acclaimed director Ridley Scott and renowned producer Jerry Bruckheimer ±
± and based on actual events, Black Hawk Down is the heroic account of a group ±
± of elie U.S. soldiers sent into Mogadishu, Somalia in October 1993 as part ±
± of a U.N. peacekeeping operation. When their mission takes an unexpected ±
± turn it results in the U.S. military's single biggest firefight since ±
± Vietnam. ±
± ±
± ±
± ±
± ±
±°°°°°°°°°°°°°°°°°°°°°°°°°°°°°°°°°°°°°°°°°°°°°°°°°°°°°°°°°°°°°°°°°°°°°°°°°°°°°°±
± ±
± CAST: ±
± ±
± Josh Hartnett..............Eversmann ±
± Ewan McGregor..............Grimes ±
± Tom Sizemore...............McKnight ±
± Eric Bana..................Hoot ±
± William Fichtner...........Sanderson ±
± Ewen Bremner...............Nelson ±
± Sam Shepard................Garrison ±
± ±
±°°°°°°°°°°°°°°°°°°°°°°°°°°°°°°°°°°°°°°°°°°°°°°°°°°°°°°°°°°°°°°°°°°°°°°°°°°°°°°±
± ±
± Please remember to seed ±
± ±
± Seeding is good for the soul ±
± ±
±±±±±±±±±±±±±±±±±±±±±±±±±±±±±±±±±±±±±±±±±±±±±±±±±±±±±±±±±±±±±±±±±±±±±±±±±±±±±±±±

related torrents

Torrent name

health leech seeds Size
 

comments (0)

Main Menu