Action

Bad Boys[1995]DVDrip[WS]AC 3[5 1][Eng] Atlas47

  • Download 5x Faster
  • Download torrent
  • Direct Download
  • Rate this torrent +  |  -
Bad Boys[1995]DVDrip[WS]AC 3[5 1][Eng] Atlas47

Free and Direct Download with Usenet 300GB+ free


Torrent info

Name:Bad Boys[1995]DVDrip[WS]AC 3[5 1][Eng] Atlas47

Total Size: 1.37 GB

Magnet: Magnet Link

Seeds: 0

Leechers: 0

Stream: Watch Online @ Movie4u

Last Updated: 2015-10-15 10:15:59 (Update Now)

Torrent added: 2009-08-21 22:11:45




Torrent Files List


Bad Boys.srt (Size: 1.37 GB) (Files: 4)

 Bad Boys.srt

119.29 KB

 Bad Boys.nfo

10.14 KB

 Bad Boys.avi

1.37 GB

 Covers

  Bad Boys.jpg

453.68 KB
 

tracker

leech seeds
 

Torrent description


±±±±±±±±±±±±±±±±±±±±±±±±±±±±±±±±±±±±±±±±±±±±±±±±±±±±±±±±±±±±±±±±±±±±±±±±±±±±±±±±
± ±
± INFO: ±
± ±
± General ±
± Complete name : Bad Boys ±
± Genre : Action / Comedy / Crime ±
± Format : AVI ±
± Format/Info : Audio Video Interleave ±
± File size : 1.37 GiB ±
± Duration : 1h 54mn ±
± Overall bit rate : 1 718 Kbps ±
± Writing application : VirtualDubMod 1.5.4.1 (build 2178/release)±
± Writing library : VirtualDubMod build 2178/release ±
± ±
± Video ±
± Format : MPEG-4 Visual ±
± Format settings, BVOP : Yes ±
± Format settings, QPel : No ±
± Format settings, GMC : No warppoints ±
± Format settings, Matrix : Default ±
± Codec ID : DX50 ±
± Codec ID/Hint : DivX 5 ±
± Duration : 1h 54mn ±
± Bit rate : 1 327 Kbps ±
± Width : 640 pixels ±
± Height : 352 pixels ±
± Display aspect ratio : 16/9 ±
± Frame rate : 25.000 fps ±
± Resolution : 24 bits ±
± Colorimetry : 4:2:0 ±
± Scan type : Progressive ±
± Bits/(Pixel*Frame) : 0.236 ±
± Stream size : 1.06 GiB (77%) ±
± Writing library : DivX 2816 ±
± ±
± Audio ±
± Format : AC-3 ±
± Format/Info : Audio Coding 3 ±
± Codec ID : 2000 ±
± Duration : 1h 54mn ±
± Bit rate mode : Constant ±
± Bit rate : 384 Kbps ±
± Channel(s) : 6 channels ±
± Channel positions : Front: L C R, Surround: L R, LFE ±
± Sampling rate : 48.0 KHz ±
± Stream size : 313 MiB (22%) ±
± Alignment : Split accross interleaves ±
± Interleave, duration : 80 ms (2.00 video frames) ±
± Interleave, preload duration : 500 ms ±
± Language : English ±
± Subtitles : English ±
± ±
± IMDb Rating : 6.5/10 ±
± IMDb URL : http://www.imdb.com/title/tt0112442/ ±
± ±
±°°°°°°°°°°°°°°°°°°°°°°°°°°°°°°°°°°°°°°°°°°°°°°°°°°°°°°°°°°°°°°°°°°°°°°°°°°°°°°±
± ±
± When $100 million of seized heroin is stolen from the Miami Police lockup, ±
± Detectives Lowrey and Burnett, Miami's most mismatched cops, are called upon ±
± to solve the case before the FBI close their department. Julie is their only ±
± lead to the case, but will only speak to Lowrey. As he is not around when ±
± she calls, Burnett impersonates his cool, slick partner. A hilarious role ±
± reversal begins in order to retain her trust. From then on, it's a race ±
± against time as the trio dodge the mob, and retain their charade while ±
± putting pressure on every low-life in Miami's underworld to track down their ±
± man. ±
± ±
±°°°°°°°°°°°°°°°°°°°°°°°°°°°°°°°°°°°°°°°°°°°°°°°°°°°°°°°°°°°°°°°°°°°°°°°°°°°°°°±
± ±
± CAST: ±
± ±
± Martin Lawrence............Marcus Burnett ±
± Will Smith.................Mike Lowrey ±
± Tea Leoni..................Julie Mott ±
± Frank John Hughes..........Casper ±
± Theresa Randle.............Theresa Burnett ±
± Joe Pantoliano.............Captain Howard ±
± Nestor Serrano.............Detective Sanchez ±
± ±
±°°°°°°°°°°°°°°°°°°°°°°°°°°°°°°°°°°°°°°°°°°°°°°°°°°°°°°°°°°°°°°°°°°°°°°°°°°°°°°±

related torrents

Torrent name

health leech seeds Size
 

comments (0)

Main Menu