Action

Bad Boys II[2003]DVDrip[WS]AC 3[5 1][Eng] Atlas47

  • Download 5x Faster
  • Download torrent
  • Direct Download
  • Rate this torrent +  |  -
Bad Boys II[2003]DVDrip[WS]AC 3[5 1][Eng] Atlas47

Anonymous and Free Direct Download 300GB+


Torrent info

Name:Bad Boys II[2003]DVDrip[WS]AC 3[5 1][Eng] Atlas47

Total Size: 1.37 GB

Magnet: Magnet Link

Seeds: 0

Leechers: 0

Stream: Watch Online @ Movie4u

Last Updated: 2016-01-28 05:13:57 (Update Now)

Torrent added: 2009-08-21 22:11:33



VPN For Torrents

Torrent Files List


ResourceRG_NFO_please_read.txt (Size: 1.37 GB) (Files: 5)

 ResourceRG_NFO_please_read.txt

20.91 KB

 Bad Boys II.nfo

10.14 KB

 Bad Boys II.srt

155.58 KB

 Covers

  Bad_Boys_2.jpg

370.79 KB

 Bad Boys II.avi

1.37 GB
 

tracker

leech seeds
 

Torrent description


±±±±±±±±±±±±±±±±±±±±±±±±±±±±±±±±±±±±±±±±±±±±±±±±±±±±±±±±±±±±±±±±±±±±±±±±±±±±±±±±
± ±
± INFO: ±
± ±
± General ±
± Complete name : Bad Boys II ±
± Genre : Action / Comedy / Crime ±
± Format : AVI ±
± Format/Info : Audio Video Interleave ±
± File size : 1.37 GiB ±
± Duration : 2h 20mn ±
± Overall bit rate : 1 392 Kbps ±
± Writing application : VirtualDubMod 1.5.4.1 (build 2178/release)±
± Writing library : VirtualDubMod build 2178/release ±
± ±
± Video ±
± Format : MPEG-4 Visual ±
± Format settings, BVOP : Yes ±
± Format settings, QPel : No ±
± Format settings, GMC : No warppoints ±
± Format settings, Matrix : Default ±
± Codec ID : DX50 ±
± Codec ID/Hint : DivX 5 ±
± Duration : 2h 20mn ±
± Bit rate : 937 Kbps ±
± Width : 528 pixels ±
± Height : 224 pixels ±
± Display aspect ratio : 2.35 ±
± Frame rate : 25.000 fps ±
± Resolution : 24 bits ±
± Colorimetry : 4:2:0 ±
± Scan type : Progressive ±
± Bits/(Pixel*Frame) : 0.317 ±
± Stream size : 943 MiB (67%) ±
± Writing library : DivX 2816 ±
± ±
± Audio ±
± Format : AC-3 ±
± Format/Info : Audio Coding 3 ±
± Codec ID : 2000 ±
± Duration : 2h 20mn ±
± Bit rate mode : Constant ±
± Bit rate : 448 Kbps ±
± Channel(s) : 6 channels ±
± Channel positions : Front: L C R, Surround: L R, LFE ±
± Sampling rate : 48.0 KHz ±
± Stream size : 451 MiB (32%) ±
± Alignment : Split accross interleaves ±
± Interleave, duration : 80 ms (2.00 video frames) ±
± Interleave, preload duration : 500 ms ±
± Language : English ±
± Subtitles : English ±
± ±
± IMDb Rating : 6.2/10 ±
± IMDb URL : http://www.imdb.com/title/tt0172156/ ±
± ±
±°°°°°°°°°°°°°°°°°°°°°°°°°°°°°°°°°°°°°°°°°°°°°°°°°°°°°°°°°°°°°°°°°°°°°°°°°°°°°°±
± ±
± Hang on for maximum mayhem, full-on fun and the wildest chase scenes ever ±
± put on film! The Action and comedy never stops when superstars Martin ±
± Lawrence and Will Smith reunite as out-of-control trash-talking buddy cops ±
± Marcus Burnett and Mike Lowrey of the Miami Narcotics Task Force. Bullets ±
± fly, cars crash and laughs explode as they persue a whacked-out drug lord ±
± from the streets of Miami to the barrios of Cuba. But the real fireworks ±
± result when Burnett discovers that playboy Lowrey is secretly romancing his ±
± sexy sister Syd (Gabrielle Union - Bring It On). ±
± ±
± ±
±°°°°°°°°°°°°°°°°°°°°°°°°°°°°°°°°°°°°°°°°°°°°°°°°°°°°°°°°°°°°°°°°°°°°°°°°°°°°°°±
± ±
± CAST: ±
± ±
± Martin Lawrence............Marcus Burnett ±
± Will Smith.................Mike Lowrey ±
± Gabrielle Union............Syd ±
± Jordi Molla................Hector Juan Carlos 'Johnny' Tapi ±
± Theresa Randle.............Theresa Burnett ±
± Joe Pantoliano.............Captain Howard ±
± Michael Shannon............Floyd Poteet ±
±°°°°°°°°°°°°°°°°°°°°°°°°°°°°°°°°°°°°°°°°°°°°°°°°°°°°°°°°°°°°°°°°°°°°°°°°°°°°°°±
± ±
± Please remember to seed ±
± ±
± Seeding is good for the soul ±
± ±
±±±±±±±±±±±±±±±±±±±±±±±±±±±±±±±±±±±±±±±±±±±±±±±±±±±±±±±±±±±±±±±±±±±±±±±±±±±±±±±±

related torrents

Torrent name

health leech seeds Size
 


comments (0)

Main Menu