Action

Bad Boys Double Feature German AC3 1080i HDTVRip x264

  • Download 5x Faster
  • Download torrent
  • Direct Download
  • Rate this torrent +  |  -
Bad Boys Double Feature German AC3 1080i HDTVRip x264

Anonymous and Free Direct Download


Torrent info

Name:Bad Boys Double Feature German AC3 1080i HDTVRip x264

Total Size: 21.43 GB

Magnet: Magnet Link

Seeds: 0

Leechers: 0

Stream: Watch Online @ Movie4u

Last Updated: 2010-07-24 05:20:15 (Update Now)

Torrent added: 2009-08-21 22:10:56



VPN For Torrents

Torrent Files List


Bad.Boys.1995.Ger.1080i.HDTV.HD-Cinema (Size: 21.43 GB) (Files: 2)

 Bad.Boys.1995.Ger.1080i.HDTV.HD-Cinema

  Bad.Boys.1995.Ger.1080i.HDTV.HD-Cinema.mkv

11.23 GB

 Bad.Boys.2.German.AC3.1080i.HDTVRip.x264

  Bad.Boys.2.German.AC3.1080i.HDTVRip.x264.ts

10.20 GB
 

Announce URL: http://intertracker.org/announce.php

Torrent description

Bad.Boys.Double.Feature.German.AC3.1080i.HDTVRip.x264




leider gab es noch kein Bluray Release aber hier mal beide in 1080i MPEG besseres konnte ich nicht finden
beides HDTV Versionen also nicht Bluray Qualität bitte keine Kommentare zur Qualität ;-)
bessere wie DVD auf jedenfall

Viel Spass damit

HDCinema-Forum Team





Bad.Boys.1995.Multi.1080i.HDTV.HD-Cinema





Mike Lowrey und Marcus Burnett sind Drogenfahnder der Polizei von Miami. Sie sind Partner und Freunde, ansonsten aber grundverschiedene Typen. Während Marcus mit Ehefrau Theresa und seinen Kindern ein geordnetes Familiendasein in einem beschaulichen Eigenheim führt, lebt der aus reichem Hause stammende Draufgänger Mike das Leben eines Neureichen. Gerade hat das ungleiche Duo den Coup seines Lebens gemacht und Heroin im Marktwert von knapp 100 Millionen US-Dollar beschlagnahmt, da wird dieses auch schon aus der Asservatenkammer gestohlen. Mikes und Marcus Vorgesetzter Captain Howard ist entsetzt und bekommt zudem Ärger von der internen Ermittlungsbehörde, die glaubt, ein Insider habe den Einbruch ermöglicht. Mike und Marcus bekommen 72 Stunden Zeit, den Diebstahl aufzuklären, bevor die Behörde ihr Department schließt.





File size : 11.4 GiB
Duration : 1h 58mn
Overall bit rate : 13.8 Mbps
Encoded date : UTC 2007-10-06 14:42:17
Writing application : mkvmerge v2.1.0 ('Another Place To Fall') built on Aug 19 2007 13:40:07
Writing library : libebml v0.7.7 + libmatroska v0.8.1

Video
ID : 1
Format : MPEG Video
Format version : Version 2
Format profile : [email protected]
Format settings, Matrix : Default
Codec ID : V_MPEG2
Codec ID/Info : MPEG 1 or 2 Video
Duration : 1h 58mn
Bit rate mode : Variable
Bit rate : 11.9 Mbps
Nominal bit rate : 14.2 Mbps
Width : 1 920 pixels
Height : 1 088 pixels
Display aspect ratio : 16/9
Frame rate : 29.970 fps
Standard : Component
Colorimetry : 4:2:0
Scan type : Progressive
Scan order : Bottom Field First
Bits/(Pixel*Frame) : 0.190



Audio #1
ID : 2
Format : AC-3
Format/Info : Audio Coding 3
Codec ID : A_AC3
Duration : 1h 58mn
Bit rate mode : Constant
Bit rate : 448 Kbps
Channel(s) : 6 channels
Channel positions : Front: L C R, Surround: L R, LFE
Sampling rate : 48.0 KHz
Title : u041fu043bu043eu0445u0438u0435 u041fu0430u0440u043du0438 (u0414u0443u0431u043bu044fu0436)
Language : Russian

Audio #2
ID : 3
Format : AC-3
Format/Info : Audio Coding 3
Codec ID : A_AC3
Duration : 1h 58mn
Bit rate mode : Constant
Bit rate : 448 Kbps
Channel(s) : 6 channels
Channel positions : Front: L C R, Surround: L R, LFE
Sampling rate : 48.0 KHz


Audio #3
ID : 4
Format : AC-3
Format/Info : Audio Coding 3
Codec ID : A_AC3
Duration : 1h 58mn
Bit rate mode : Constant
Bit rate : 448 Kbps
Channel(s) : 6 channels
Channel positions : Front: L C R, Surround: L R, LFE
Sampling rate : 48.0 KHz
Title : Bad Boys
Language : English

Audio
Format : AC-3
Format/Info : Audio Coding 3
Bit rate mode : Constant
Bit rate : 640 Kbps
Channel(s) : 6 channels
Channel positions : Front: L C R, Surround: L R, LFE
Sampling rate : 48.0 KHz
Language : Deutsch





Bad.Boys.2.German.AC3.1080i.HDTVRip.x264






Drogenfahnder Mike Lowrey und Marcus Burnett übernehmen als Mitglieder einer Rauschgift-Sondereinheit des Miami Police Departments den Auftrag, die grte, bisher entdeckte Lieferung von Ecstasy nach Miami zu unterbinden. Ihre Untersuchungen führen sie auf die Spur einer weitreichenden Verschwörung, in die ein gefährlicher Gangsterboss verwickelt ist. Dessen Ambitionen, den Drogenhandel in der Stadt unter seine Kontrolle zu bringen, haben bereits einen blutigen Krieg in der Unterwelt entfacht. Das freundschaftliche Arbeitsverhältnis von Mike und Marcus wird dabei überraschend auf eine schwere Probe gestellt, als sich Mike für Marcus' Schwester Syd zu interessieren beginnt. Und bevor beide nicht das Persönliche vom Professionellen trennen können, laufen die "Bad Boys" Gefahr, ihren Auftrag völlig zu vermasseln - und in Folge dessen auch noch Syds Leben aufs Spiel zu setzen.





Format : MPEG-TS
File size : 10.2 GiB
Duration : 2h 21mn
Overall bit rate : 10.4 Mbps

Video
Format : AVC
Format/Info : Advanced Video Codec
Format profile : [email protected]
Format settings, CABAC : Yes
Format settings, ReFrames : 2 frames
Duration : 2h 21mn
Bit rate : 9 191 Kbps
Width : 1 920 pixels
Height : 1 088 pixels
Display aspect ratio : 16/9
Frame rate : 25.000 fps
Resolution : 24 bits
Colorimetry : 4:2:0
Scan type : Progressive
Bits/(Pixel*Frame) : 0.176
Stream size : 9.05 GiB (89)

Audio
Format : AC-3
Format/Info : Audio Coding 3
Duration : 2h 21mn
Bit rate mode : Constant
Bit rate : 448 Kbps
Channel(s) : 2 channels
Channel positions : L R
Sampling rate : 48.0 KHz
Video delay : 17ms
Stream size : 452 MiB (4)
Language : German

related torrents

Torrent name

health leech seeds Size

Bad Boys Double Feature

0 0 2.00 GB 0
 


comments (0)

Main Menu