Action

Babylon A D [2008] Dvdrip Xvid AC3[5 1] RoCK&BlueLadyRG

  • Download 5x Faster
  • Download torrent
  • Direct Download
  • Rate this torrent +  |  -
Babylon A D [2008] Dvdrip Xvid AC3[5 1] RoCK&BlueLadyRG

Free and Direct Download with Usenet.nl 300GB+ free


Torrent info

Name:Babylon A D [2008] Dvdrip Xvid AC3[5 1] RoCK&BlueLadyRG

Total Size: 1.37 GB

Magnet: Magnet Link

Seeds: 6

Leechers: 2

Stream: Watch Online @ Movie4u

Last Updated: 2010-09-20 14:40:29 (Update Now)

Torrent added: 2009-08-21 22:06:40





Torrent Files List


Babylon.A.D.[2008].Dvdrip.Xvid.AC3[5.1]-RoCK&BlueLadyRG.nfo (Size: 1.37 GB) (Files: 2)

 Babylon.A.D.[2008].Dvdrip.Xvid.AC3[5.1]-RoCK&BlueLadyRG.nfo

4.89 KB

 Babylon.A.D.[2008].Dvdrip.Xvid.AC3[5.1]-RoCK&BlueLadyRG.avi

1.37 GB
 

Announce URL: http://vip.tracker.thepiratebay.org:80/announce

Torrent description


RoCK & BlueLady RG

*******************************************************************************
Proudly presents: Babylon A.D. (2008)
*******************************************************************************

-------------------------------------------------------------------------------
General Information
-------------------------------------------------------------------------------
Type : Movie
Burn Tested : Yes
Subtitles : None
: Dutch can be found on http://www.genesis-sp.com

Format : AVI
Format/Info : Audio Video Interleave
File size : 1.37 GiB
Duration : 1h 30mn
Overall bit rate : 2 168 Kbps
Writing application : VirtualDubMod 1.5.10.2 (build 2540/release)
Writing library : VirtualDubMod build 2540/release

Audio Enlish
Format : AC-3
Format/Info : Audio Coding 3
Codec ID : 2000
Duration : 1h 30mn
Bit rate mode : Constant
Bit rate : 448 Kbps
Channel(s) : 6 channels
Channel positions : Front: L C R, Surround: L R, LFE
Sampling rate : 48.0 KHz
Video delay : 16ms
Stream size : 289 MiB (21%)
Alignment : Split accross interleaves
Interleave, duration : 33 ms (1.00 video frame)
Interleave, preload duration : 500 ms

Video
Format : MPEG-4 Visual
Format settings, BVOP : No
Format settings, QPel : No
Format settings, GMC : No warppoints
Format settings, Matrix : Default
Codec ID : XVID
Codec ID/Hint : XviD
Duration : 1h 30mn
Bit rate : 1 708 Kbps
Width : 720 pixels
Height : 304 pixels
Display aspect ratio : 2.35
Frame rate : 29.970 fps
Resolution : 24 bits
Colorimetry : 4:2:0
Scan type : Progressive
Bits/(Pixel*Frame) : 0.260
Stream size : 1.08 GiB (79%)
Writing library : XviD 1.0.3 (UTC 2004-12-20)

Source : Retail-DVD
Original Format : NTSC
Genre : Action | Adventure | Sci-Fi | Thriller
IMDb Rating : 5.3 (11,058 Votes)
Movie Information : http://www.imdb.com/title/tt0364970/
DVD Retail Date : January 6, 2009

-------------------------------------------------------------------------------
Post Information
-------------------------------------------------------------------------------
Posted by............: RoCK (http://www.genesis-sp.com)
Posted on............: 19-12-2008

-------------------------------------------------------------------------------
Release Notes
-------------------------------------------------------------------------------
Veteran-turned-mercenary Thoorop takes the high-risk job of escorting a woman from Russia to America. Little does he know that she is host to an organism that a cult wants to harvest in order to produce a genetically modified Messiah.

Director: Mathieu Kassovitz

Writers : Eric Besnard
: Maurice G. Dantec


Cast :

Vin Diesel ... Toorop
Michelle Yeoh ... Sister Rebeka
MΘlanie Thierry ... Aurora
GΘrard Depardieu ... Gorsky
Charlotte Rampling ... High Priestess
Mark Strong ... Finn
Lambert Wilson ... Darquandier
JΘr?me Le Banner ... Killa
Joel Kirby ... Dr. Newton
Souleymane Dicko ... Jamal
David Belle ... Kid with Tattoos
Radek Bruna ... Karl
Jan Unger ... Fight Promoter
Abraham Belaga ... Assistant to High Priestess
Gary Cowan ... Neolite Executive

Enjoy this movie!



------------------------------------------------------------------------------------------
Announcement
------------------------------------------------------------------------------------------
I decided to drop the 1cd versions and replace them with movies in MKV format. This means
smaller filesizes with higher quality. The movies you can watch in VLC or download the x264
codec!

If you want to decode it and burn it on dvd use convertxtodvd 3


RoCK.






------------------------------------------------------------------------------------------
You can find us both at: http://www.genesis-sp.com/
------------------------------------------------------------------------------------------

related torrents

Torrent name

health leech seeds Size
 

comments (0)

Main Menu