Action

Armageddon

  • Download 5x Faster
  • Download torrent
  • Direct Download
  • Rate this torrent +  |  -
Armageddon

Anonymous and Free Direct Download


Torrent info

Name:Armageddon

Total Size: 1.12 GB

Magnet: Magnet Link

Seeds: 0

Leechers: 0

Stream: Watch Online @ Movie4u

Last Updated: 2015-09-20 06:02:18 (Update Now)

Torrent added: 2009-08-21 21:50:57

Alternatives:Armageddon Torrents



VPN For Torrents

Torrent Files List


Armageddon.ass (Size: 1.12 GB) (Files: 2)

 Armageddon.ass

202.07 KB

 Armageddon.AVI

1.12 GB
 

tracker

leech seeds
 

Torrent description

Format : AVI
Format/Info : Audio Video Interleave
File size : 1.12 GiB
Duration : 2h 29mn
Overal bit rate : 1070 Kbps

Video
Format : MPEG-4 Visual
Format profile : Streaming [email protected]
Format settings, BVOP : Yes
Format settings, QPel : No
Format settings, GMC : No warpoints
Format settings, Matrix : Default
Muxing mode : Packet Bitstream
Codec ID : XVID
Codec ID/Hint : XviD
Duration : 2h 29mn
Bit rate : 872 Kbps
Width : 640 pixels
Height : 360 pixels
Display aspect ratio : 16/9
Frame rate : 25.000 fps
Resolution : 8 bits
Colorimetry : 4:2:0
Scan type : Progressive
Bits/(Pixel*Frame) : 0.151
Stream size : 934 MiB
Writing library : XviD 1.2.0.dev47 (UTC 2006-11-01)

Audio
Format : AC-3
Format/Info : Audio Coding 3
Codec ID : 2000
Duration : 2h 29mn
Bit rate mode : Constant
Bit rate : 192 Kbps
Channel(s) : 2 channels
Channel positions : L R
Sampling rate : 44.1 KHz
Stream size : 205 MiB

related torrents

Torrent name

health leech seeds Size
 


comments (0)

Main Menu