Action

Apocalypto 2006 DVDRIP ZEKTORM

  • Download 5x Faster
  • Download torrent
  • Direct Download
  • Rate this torrent +  |  -
Apocalypto 2006 DVDRIP ZEKTORM

Free and Direct Download with Usenet.nl 300GB+ free


Torrent info

Name:Apocalypto 2006 DVDRIP ZEKTORM

Total Size: 704.75 MB

Magnet: Magnet Link

Seeds: 0

Leechers: 0

Stream: Watch Online @ Movie4u

Last Updated: 2014-08-22 10:25:05 (Update Now)

Torrent added: 2009-08-21 21:47:32





Torrent Files List


Subs (Size: 704.75 MB) (Files: 4)

 Subs

  Apocalypto.2006.DVDRIP-ZEKTORM.sub

4.69 MB

  Apocalypto.2006.DVDRIP-ZEKTORM.idx

70.66 KB

 READ.hlp

12.64 KB

 Apocalypto.2006.DVDRIP-ZEKTORM.mp4

699.98 MB
 

Announce URL:

Torrent description

Title : Apocalypto
Year : 2006
Genre : Action | Adventure | Drama
iMDB Rate : User Rating: 7.9/10 63,784 votes
iMDB URL : http://www.imdb.com/title/tt0472043/
Awards : Nominated for 3 Oscars. Another 6 wins & 13 nominations

Complete name : Apocalypto.2006.DVDRIP-ZEKTORM.mp4
Format : MPEG-4
Format profile : Base Media
Codec ID : isom
File size : 700 MiB
Duration : 2h 18mn
Overall bit rate : 707 Kbps
Subtitles : English, Spanish, French (Format: VobSub)
Source : DVD NTSC
Encoded date : UTC 2009-01-25 22:13:03

Video
Format : AVC
Format/Info : Advanced Video Codec
Format profile : [email protected]
Format settings, CABAC : Yes
Format settings, ReFrames : 10 frames
Codec ID : avc1
Codec ID/Info : Advanced Video Coding
Duration : 2h 18mn
Bit rate mode : Variable
Bit rate : 614 Kbps
Maximum bit rate : 4379 Kbps
Width : 720 pixels
Height : 448 pixels
Display aspect ratio : 1.948
Frame rate mode : Constant
Frame rate : 23.976 fps
Resolution : 24 bits
Colorimetry : 4:2:0
Scan type : Progressive
Bits/(Pixel*Frame) : 0.079
Stream size : 608 MiB (87%)
Title : Video
Writing library : x264 core 60 r900 a9af942

Audio
Format : AAC
Format/Info : Advanced Audio Codec
Format version : Version 4
Format profile : LC
Format settings, SBR : Yes
Format settings, PS : No
Codec ID : 40
Duration : 2h 18mn
Bit rate mode : Variable
Bit rate : 90.4 Kbps
Maximum bit rate : 107 Kbps
Channel(s) : 2 channels
Channel positions : L R
Sampling rate : 48.0 KHz
Resolution : 16 bits
Stream size : 89.5 MiB (13%)
Language : Yucatec Maya

Notes : Convert to DVD with Nero

related torrents

Torrent name

health leech seeds Size

Apocalypto (2006)

7 18 900.00 MB 0
 

comments (0)

Main Menu