Comedy

Airheads RICO

  • Download 5x Faster
  • Download torrent
  • Direct Download
  • Rate this torrent +  |  -
Airheads RICO

Anonymous and Free Direct Download 300GB+


Torrent info

Name:Airheads RICO

Total Size: 700.09 MB

Magnet: Magnet Link

Seeds: 5

Leechers: 3

Stream: Watch Online @ Movie4u

Last Updated: 2010-05-05 08:43:53 (Update Now)

Torrent added: 2009-08-21 21:47:14



VPN For Torrents

Torrent Files List


tracked_by_h33t_com.txt (Size: 700.09 MB) (Files: 5)

 tracked_by_h33t_com.txt

0.02 KB

 MEDIA INFO.doc

2.66 KB

 Airheads.nfo

1.21 KB

 airheads.jpg

36.38 KB

 Airheads (1994)RICO.avi

700.05 MB
 

Announce URL: http://www.h33t.com:3310/announce

Torrent description

Airheads  RICO preview 0
General
Complete name : G:\Movies\Airheads_ RICO\Airheads (1994)RICO.avi
Format : AVI
Format/Info : Audio Video Interleave
File size : 700 MiB
Duration : 1h 32mn
Overall bit rate : 1 061 Kbps
Writing application : VirtualDubMod 1.5.4.1 (build 2178/release)
Writing library : VirtualDubMod build 2178/release

Video
Format : MPEG-4 Visual
Format profile : Streaming [email protected]
Format settings, BVOP : Yes
Format settings, QPel : No
Format settings, GMC : No warppoints
Format settings, Matrix : Default
Muxing mode : Packed bitstream
Codec ID : XVID
Codec ID/Hint : XviD
Duration : 1h 32mn
Bit rate : 926 Kbps
Width : 560 pixels
Height : 304 pixels
Display aspect ratio : 16/9
Frame rate : 23.976 fps
Resolution : 24 bits
Colorimetry : 4:2:0
Scan type : Progressive
Bits/(Pixel*Frame) : 0.227
Stream size : 611 MiB (87%)
Writing library : XviD 1.2.0.dev47 (UTC 2006-11-01)

Audio
Format : MPEG Audio
Format version : Version 1
Format profile : Layer 3
Codec ID : 55
Codec ID/Hint : MP3
Duration : 1h 32mn
Bit rate mode : Constant
Bit rate : 128 Kbps
Minimum bit rate : 128 Kbps
Channel(s) : 2 channels
Sampling rate : 48.0 KHz
Resolution : 16 bits
Stream size : 84.4 MiB (12%)
Alignment : Aligned on interleaves
Interleave, duration : 83 ms (2.00 video frames)
Interleave, preload duration : 504 ms
Writing library : LAME3.97
Encoding settings : CBR
Language : English

related torrents

Torrent name

health leech seeds Size
 


comments (0)

Main Menu