Pop

Renato Carosone Whisky & Soda & Rock n Roll Flac+Cuetnt village scambioetico orgBy Ra

  • Download 5x Faster
  • Download torrent
  • Direct Download
  • Rate this torrent +  |  -

Torrent info

Name:Renato Carosone Whisky & Soda & Rock n Roll Flac+Cuetnt village scambioetico orgBy Ra

Total Size: 430.27 MB

Magnet: Magnet Link

Seeds: 0

Leechers: 0

Stream: Watch Online @ Movie4u

Last Updated: 2011-04-29 06:09:46 (Update Now)

Torrent added: 2008-07-18 09:38:16




Torrent Files List


cover.jpg (Size: 430.27 MB) (Files: 5)

 cover.jpg

22.74 KB

 Renato Carosone - Whisky & Soda & Rock 'n' Roll.cue

2.69 KB

 Renato Carosone - Whisky & Soda & Rock 'n' Roll.flac

430.24 MB

 tracklist.txt

0.43 KB

 Whisky & Soda & Rock 'n' Roll.log

4.03 KB
 

Announce URL:

Torrent description

Classica Napol ,napoli,italy ,folk ,

[color=green]:::->Cover<-:::[/color]

Renato Carosone   Whisky & Soda & Rock n Roll Flac+Cuetnt village scambioetico orgBy Ra preview 0
[color=green]:::->Dati Album<-:::[/color]


Autore:Renato Carosone
Titolo: Whishy & Soda & Rock 'n' Roll [Limited Edition]
Anno:2001
Genere: Pop, Pop Italiano, Classiche Napoletane
Etichetta:fonit
fonte cd /originale /cdda
Cover : Incluse
------------------------------------------------------------------------------------------------------------------------
[color=green]:::->Tracklist<-:::[/color]

CD1

Tu vuò fa l'americano
Chella llà
Torero
Io, mammeta e tu
Mambo Italiano
La pansé
Malafemmina
Caravan petrol
O' sarracino
La donna riccia
O russo e a rossa
Pigliate 'na pastiglia
Boogie Woogie italiano
Tre numeri al lotto
Papaveri e papere
E la barca tornò sola
Maruzzella
A casciaforte
Papa loves Mambo
Il pericolo No. 1
Istanbul
Piccolissima serenata
La sveglietta
Ciribiribin
Luna rossa

-----------------------------------------------------------------------------------------------------------------------
Renato Carosone Nato a Napoli il 3 gennaio 1920, si é spento a Roma il 20 maggio 2001, compositore e cantante antante e compositore napoletano. Inizia molto presto ad appassionarsi di musica e di pianoforte. Terminati gli studi di musica classica, nel 1937 viene scritturato come pianista e direttore d'orchestra da una compagnia d'arte. Dopo aver lavorato in Africa per nove anni, riscuotendo un clamoroso successo personale, nel 1946 ritorna a Napoli, ma vi resta solo per poco tempo. Seguendo il proprio istinto decide di partire per Roma, dove ottiene in breve tempo una buona notorietà nell'ambiente musicale romano.Nel 1949 fonda il Trio Carosone, insieme a Peter Van Wood e Gegè di Giacomo. I tre inaugurano lo Shaker Club di Napoli, con un repertorio prevalentemente americano. I grandi successi esplodono negli anni '50, in particolare durante le trionfali stagioni della Bussola di Viareggio, inaugurata proprio dal gruppo di Carosone nel 1955. Il primo grande successo commerciale è Maruzzella. Le successive incisioni (O Sarracino, Torero, Caravan Petrol, Tu vuo fa' l'americano) conquistano rapidamente le classifiche di vendita europee e nordamericane.Nel 1960, al culmine del successo, decide di ritirarsi dalle scene per dedicarsi allo studio della musica classica e alla pittura. Il silenzio musicale si interrompe nel 1975, con uno spettacolo dal vivo che ottiene un formidabile successo di pubblico e di critica. Nel 1982 ritorna in sala d'incisione e registra Renato Carosone 82. Renato Carosone divenuto celebre con il famoso brano Tu vuo' fa l'americano, negli ultimi anni della sua vita soffriva di disturbi respiratori e problemi circolatori, che lo hanno tenuto lontano dal palco.
Renato Carasone - Whisky & Soda & Rock 'n' Roll







[color=green]:::->Dati Tecnici<-:::[/color]

[color=red] Formato : Flac [/color]
Programma usato [Eac]

[CODE]
Exact Audio Copy V0.99 prebeta 3 from 28. July 2007

EAC extraction logfile from 18. July 2008, 13:30

Renato Carosone / Whisky & Soda & Rock 'n' Roll

Used drive : _NEC DVD_RW ND-3550A Adapter: 5 ID: 0

Read mode : Secure
Utilize accurate stream : Yes
Defeat audio cache : Yes
Make use of C2 pointers : No

Read offset correction : 48
Overread into Lead-In and Lead-Out : No
Fill up missing offset samples with silence : Yes
Delete leading and trailing silent blocks : No
Null samples used in CRC calculations : No
Used interface : Installed external ASPI interface

Used output format : User Defined Encoder
Selected bitrate : 768 kBit/s
Quality : High
Add ID3 tag : No
Command line compressor : C:\Programmi\Exact Audio Copy\FLAC\FLAC.EXE
Additional command line options : -6 -V -T "ARTIST=%a" -T "TITLE=%t" -T "ALBUM=%g" -T "DATE=%y" -T "TRACKNUMBER=%n" -T "GENRE=%m" -T "COMMENT=%e" %s -o %d


TOC of the extracted CD

Track | Start | Length | Start sector | End sector
---------------------------------------------------------
1 | 0:00.00 | 3:29.12 | 0 | 15686
2 | 3:29.12 | 3:02.33 | 15687 | 29369
3 | 6:31.45 | 3:03.15 | 29370 | 43109
4 | 9:34.60 | 3:22.70 | 43110 | 58329
5 | 12:57.55 | 3:02.20 | 58330 | 71999
6 | 16:00.00 | 3:30.72 | 72000 | 87821
7 | 19:30.72 | 2:49.00 | 87822 | 100496
8 | 22:19.72 | 3:22.33 | 100497 | 115679
9 | 25:42.30 | 3:11.42 | 115680 | 130046
10 | 28:53.72 | 2:56.33 | 130047 | 143279
11 | 31:50.30 | 3:16.62 | 143280 | 158041
12 | 35:07.17 | 3:01.38 | 158042 | 171654
13 | 38:08.55 | 2:43.35 | 171655 | 183914
14 | 40:52.15 | 2:54.42 | 183915 | 197006
15 | 43:46.57 | 2:30.58 | 197007 | 208314
16 | 46:17.40 | 2:15.17 | 208315 | 218456
17 | 48:32.57 | 3:45.45 | 218457 | 235376
18 | 52:18.27 | 2:36.53 | 235377 | 247129
19 | 54:55.05 | 2:39.70 | 247130 | 259124
20 | 57:35.00 | 2:50.70 | 259125 | 271944
21 | 60:25.70 | 3:12.25 | 271945 | 286369
22 | 63:38.20 | 3:25.22 | 286370 | 301766
23 | 67:03.42 | 3:24.50 | 301767 | 317116
24 | 70:28.17 | 2:46.35 | 317117 | 329601
25 | 73:14.52 | 3:22.08 | 329602 | 344759


Range status and errors

Selected range

Filename D:\Documents and Settings\salvo.SN116508160310\Documenti\Renato Carosone - Whisky & Soda & Rock 'n' Roll.wav

Peak level 100.0 %
Range quality 100.0 %
Test CRC 273A9B29
Copy CRC 273A9B29
Copy OK

No errors occurred


AccurateRip summary

Track 1 not present in database
Track 2 not present in database
Track 3 not present in database
Track 4 not present in database
Track 5 not present in database
Track 6 not present in database
Track 7 not present in database
Track 8 not present in database
Track 9 not present in database
Track 10 not present in database
Track 11 not present in database
Track 12 not present in database
Track 13 not present in database
Track 14 not present in database
Track 15 not present in database
Track 16 not present in database
Track 17 not present in database
Track 18 not present in database
Track 19 not present in database
Track 20 not present in database
Track 21 not present in database
Track 22 not present in database
Track 23 not present in database
Track 24 not present in database
Track 25 not present in database

None of the tracks are present in the AccurateRip database

End of status report



[/CODE]


related torrents

Torrent name

health leech seeds Size
 


comments (0)

Main Menu