Comedy

Adaptation 2002 DVDRip XviD [

  • Download 5x Faster
  • Download torrent
  • Direct Download
  • Rate this torrent +  |  -
Adaptation 2002 DVDRip XviD [

Anonymous and Free Direct Download 300GB+


Torrent info

Name:Adaptation 2002 DVDRip XviD [

Total Size: 700.28 MB

Magnet: Magnet Link

Seeds: 0

Leechers: 0

Stream: Watch Online @ Movie4u

Last Updated: 2011-01-04 05:07:35 (Update Now)

Torrent added: 2009-08-21 21:43:48



VPN For Torrents

Torrent Files List


Adaptation.sfv (Size: 700.28 MB) (Files: 51)

 Adaptation.sfv

4.55 KB

 Adaptation.part49.rar

13.62 MB

 Adaptation.part47.rar

14.31 MB

 Adaptation.part48.rar

14.31 MB

 Adaptation.part46.rar

14.31 MB

 Adaptation.part44.rar

14.31 MB

 Adaptation.part45.rar

14.31 MB

 Adaptation.part43.rar

14.31 MB

 Adaptation.part41.rar

14.31 MB

 Adaptation.part42.rar

14.31 MB

 Adaptation.part39.rar

14.31 MB

 Adaptation.part40.rar

14.31 MB

 Adaptation.part37.rar

14.31 MB

 Adaptation.part38.rar

14.31 MB

 Adaptation.part36.rar

14.31 MB

 Adaptation.part35.rar

14.31 MB

 Adaptation.part34.rar

14.31 MB

 Adaptation.part32.rar

14.31 MB

 Adaptation.part33.rar

14.31 MB

 Adaptation.part30.rar

14.31 MB

 Adaptation.part31.rar

14.31 MB

 Adaptation.part29.rar

14.31 MB

 Adaptation.part27.rar

14.31 MB

 Adaptation.part28.rar

14.31 MB

 Adaptation.part25.rar

14.31 MB

 Adaptation.part26.rar

14.31 MB

 Adaptation.part23.rar

14.31 MB

 Adaptation.part24.rar

14.31 MB

 Adaptation.part21.rar

14.31 MB

 Adaptation.part22.rar

14.31 MB

 Adaptation.part19.rar

14.31 MB

 Adaptation.part20.rar

14.31 MB

 Adaptation.part18.rar

14.31 MB

 Adaptation.part16.rar

14.31 MB

 Adaptation.part17.rar

14.31 MB

 Adaptation.part15.rar

14.31 MB

 Adaptation.part13.rar

14.31 MB

 Adaptation.part14.rar

14.31 MB

 Adaptation.part12.rar

14.31 MB

 Adaptation.part10.rar

14.31 MB

 Adaptation.part11.rar

14.31 MB

 Adaptation.part09.rar

14.31 MB

 Adaptation.part08.rar

14.31 MB

 Adaptation.part06.rar

14.31 MB

 Adaptation.part07.rar

14.31 MB

 Adaptation.part05.rar

14.31 MB

 Adaptation.part03.rar

14.31 MB

 Adaptation.part04.rar

14.31 MB

 Adaptation.part02.rar

14.31 MB

 Adaptation.nfo

2.11 KB

 Adaptation.part01.rar

14.31 MB
 

Announce URL: http://tracker.ilovetorrents.com/announce.php

Torrent description

Frequently cynical screenwriter Charlie Kaufman has just taken on a new assignment. That is, to adapt writer Susan Orlean's "The Orchid Thief" into a screenplay, all of it based on the life of the eccentric John Laroche, an exotic plant collector based out of Florida. While his easygoing twin brother Donald, is writing scripts with ease, Charlie finds himself on a perpetual struggle that never seems to end.


Format : AVI
Format/Info : Audio Video Interleave
File size : 700 MiB
Duration : 1h 54mn
Overall bit rate : 852 Kbps
Writing application : VirtualDubMod 1.5.4.1 (build 2178/release)
Writing library : VirtualDubMod build 2178/release

Video
Format : MPEG-4 Visual
Format profile : Streaming [email protected]
Format settings, BVOP : Yes
Format settings, QPel : No
Format settings, GMC : No warppoints
Format settings, Matrix : Custom
Codec ID : XVID
Codec ID/Hint : XviD
Duration : 1h 54mn
Bit rate : 728 Kbps
Width : 624 pixels
Height : 336 pixels
Display aspect ratio : 1.857
Frame rate : 23.976 fps
Resolution : 24 bits
Colorimetry : 4:2:0
Scan type : Progressive
Bits/(Pixel*Frame) : 0.145
Stream size : 599 MiB (85%)
Writing library : XviD 1.2.0.dev47 (UTC 2006-11-01)

Audio
Format : MPEG Audio
Format version : Version 1
Format profile : Layer 3
Codec ID : 55
Codec ID/Hint : MP3
Duration : 1h 54mn
Bit rate mode : Variable
Bit rate : 111 Kbps
Minimum bit rate : 128 Kbps
Channel(s) : 2 channels
Sampling rate : 48.0 KHz
Resolution : 16 bits
Stream size : 91.2 MiB (13%)
Alignment : Aligned on interleaves
Interleave, duration : 24 ms (0.58 video frame)
Interleave, preload duration : 166 ms
Writing library : LAME3.97
Encoding settings : ABR

related torrents

Torrent name

health leech seeds Size

Adaptation 2002 Xvid

0 0 1.37 GB 0
 


comments (0)

Main Menu